微博 微信

Hao4K影音

电影频道
电影封面:
片  名: 德语课4k
电影分类: 剧情 
国  家: 德国 
年  代: 2019年
分 辨 率: 4K(3840x2160)
电影格式: MKV|REMUX 
画质标准: HDR10 
音质编码: DTS-HD Master Audio 
电影声道: 5.1声道 
帧数/FPS: 24.000 FPS
电影语言: 英文原版 
资源大小: 16.32 GB
导  演: 克里斯蒂安·施沃霍夫
豆瓣评分: 7.5 分
中文字幕: /thread-54413-1-1.html
剧情简介: 由克里斯蒂安·施沃霍夫执导,改编自西格弗里德·伦茨的同名小说《Deutschstunde》。这部二战反思小说是德国文学史上的里程碑杰作,具有重要的意义。时长两小时影片,尽管无法完美呈现原著内容,但也剥离出来一条主线,很好描绘了人们的亲情友情在那个时代背景下所遭受的扭曲。
偷画男孩(台) / The German Lesson/德语课4k The.German.Lesson.2019.GERMAN.2160p.AMZN.WEB-DL.x265.10bit.HDR10plus.DTS-HD.MA.5.1.电影信息
  1. Video
  2. ID : 1
  3. Format : HEVC
  4. Format/Info : High Efficiency Video Coding
  5. Format profile : Main 10@L5@Main
  6. HDR format : SMPTE ST 2094 App 4, Version 1, HDR10+ Profile B compatible
  7. Codec ID : V_MPEGH/ISO/HEVC
  8. Duration : 2 h 4 min
  9. Bit rate : 14.8 Mb/s
  10. Width : 3 840 pixels
  11. Height : 2 080 pixels
  12. Display aspect ratio : 1.85:1
  13. Frame rate mode : Constant
  14. Frame rate : 24.000 FPS
  15. Color space : YUV
  16. Chroma subsampling : 4:2:0
  17. Bit depth : 10 bits
  18. Bits/(Pixel*Frame) : 0.077
  19. Stream size : 12.9 GiB (79%)
  20. Default : Yes
  21. Forced : No
  22. Color range : Limited
  23. Color primaries : BT.2020
  24. Transfer characteristics : PQ
  25. Matrix coefficients : BT.2020 non-constant
  26. Mastering display color primaries : BT.2020
  27. Mastering display luminance : min: 0.0001 cd/m2, max: 1000 cd/m2
  28. Maximum Content Light Level : 1471 cd/m2
  29. Maximum Frame-Average Light Level : 92 cd/m2

  30. Audio #1
  31. ID : 2
  32. Format : DTS XLL
  33. Format/Info : Digital Theater Systems
  34. Commercial name : DTS-HD Master Audio
  35. Codec ID : A_DTS
  36. Duration : 2 h 5 min
  37. Bit rate mode : Variable
  38. Bit rate : 3 077 kb/s
  39. Channel(s) : 6 channels
  40. Channel layout : C L R Ls Rs LFE
  41. Sampling rate : 48.0 kHz
  42. Frame rate : 93.750 FPS (512 SPF)
  43. Bit depth : 24 bits
  44. Compression mode : Lossless
  45. Stream size : 2.69 GiB (16%)
  46. Title : DTS-HD MA 5.1
  47. Language : German
  48. Default : Yes
  49. Forced : No

  50. Audio #2
  51. ID : 3
  52. Format : E-AC-3
  53. Format/Info : Enhanced AC-3
  54. Commercial name : Dolby Digital Plus
  55. Codec ID : A_EAC3
  56. Duration : 2 h 4 min
  57. Bit rate mode : Constant
  58. Bit rate : 640 kb/s
  59. Channel(s) : 6 channels
  60. Channel layout : L R C LFE Ls Rs
  61. Sampling rate : 48.0 kHz
  62. Frame rate : 31.250 FPS (1536 SPF)
  63. Compression mode : Lossy
  64. Stream size : 572 MiB (3%)
  65. Title : DDP 5.1
  66. Language : German
  67. Service kind : Complete Main
  68. Default : No
  69. Forced : No

  70. Audio #3
  71. ID : 4
  72. Format : AC-3
  73. Format/Info : Audio Coding 3
  74. Commercial name : Dolby Digital
  75. Codec ID : A_AC3
  76. Duration : 2 h 4 min
  77. Bit rate mode : Constant
  78. Bit rate : 192 kb/s
  79. Channel(s) : 2 channels
  80. Channel layout : L R
  81. Sampling rate : 48.0 kHz
  82. Frame rate : 31.250 FPS (1536 SPF)
  83. Compression mode : Lossy
  84. Stream size : 172 MiB (1%)
  85. Title : DD 2.0
  86. Language : English
  87. Service kind : Complete Main
  88. Default : No
  89. Forced : No

  90. Text #1
  91. ID : 5
  92. Format : UTF-8
  93. Codec ID : S_TEXT/UTF8
  94. Codec ID/Info : UTF-8 Plain Text
  95. Duration : 2 h 1 min
  96. Bit rate : 21 b/s
  97. Count of elements : 704
  98. Stream size : 18.8 KiB (0%)
  99. Title : English-SRT
  100. Language : English
  101. Default : Yes
  102. Forced : Yes

  103. Text #2
  104. ID : 6
  105. Format : UTF-8
  106. Codec ID : S_TEXT/UTF8
  107. Codec ID/Info : UTF-8 Plain Text
  108. Duration : 2 h 0 min
  109. Bit rate : 26 b/s
  110. Count of elements : 938
  111. Stream size : 23.7 KiB (0%)
  112. Title : German-SRT
  113. Language : German
  114. Default : No
  115. Forced : No

  116. Text #3
  117. ID : 7
  118. Format : PGS
  119. Muxing mode : zlib
  120. Codec ID : S_HDMV/PGS
  121. Codec ID/Info : Picture based subtitle format used on BDs/HD-DVDs
  122. Duration : 2 h 0 min
  123. Bit rate : 17.9 kb/s
  124. Count of elements : 1876
  125. Stream size : 15.5 MiB (0%)
  126. Title : German-PGS
  127. Language : German
  128. Default : No
  129. Forced : No

  130. Menu
  131. 00:00:00.000 : en:Chapter 01
  132. 00:06:44.292 : en:Chapter 02
  133. 00:12:57.708 : en:Chapter 03
  134. 00:22:00.375 : en:Chapter 04
  135. 00:30:07.750 : en:Chapter 05
  136. 00:37:49.542 : en:Chapter 06
  137. 00:43:27.167 : en:Chapter 07
  138. 00:52:15.792 : en:Chapter 08
  139. 01:00:14.708 : en:Chapter 09
  140. 01:08:20.958 : en:Chapter 10
  141. 01:20:36.750 : en:Chapter 11
  142. 01:27:30.542 : en:Chapter 12
  143. 01:33:11.417 : en:Chapter 13
  144. 01:38:13.375 : en:Chapter 14
  145. 01:49:25.958 : en:Chapter 15
  146. 01:59:11.792 : en:Chapter 16
复制代码

偷画男孩(台) / The German Lesson/德语课4k The.German.Lesson.2019.GERMAN.2160p.AMZN.WEB-DL.x265.10bit.HDR10plus.DTS-HD.MA.5.1.电影下载

德语课4k The.German.Lesson.2019.GERMAN.2160p.AMZN.WEB-DL.x265.10bit.HDR10plus.DTS-HD.MA.5.1【16.32 GB】
[Hao4k]德语课4k The.German.Lesson.2019.GERMAN.2160p.AMZN.WEB-DL.x265.10bit.HDR10.torrent (82.2 KB)
回复

使用道具 举报

全部回复7

andywjhh 发表于 2021-2-22 15:36:42

andywjhh 沙发

2021-2-22 15:36:42

感谢分享,楼主辛苦你了哦
回复 支持 反对

使用道具 举报

highrpmclub 发表于 2021-2-22 19:52:35

highrpmclub 板凳

2021-2-22 19:52:35

德国的一些战争或人性电影拍的还是可以
回复 支持 反对

使用道具 举报

littlecrab 发表于 2021-2-22 22:28:47

littlecrab 地板

2021-2-22 22:28:47

多谢分享了!!
回复 支持 反对

使用道具 举报

dyczw 发表于 2021-2-23 06:36:33

dyczw 5#

2021-2-23 06:36:33

感谢分享,辛苦了
回复 支持 反对

使用道具 举报

yale 发表于 2021-2-23 15:57:14

yale 6#

2021-2-23 15:57:14

谢谢分享
回复 支持 反对

使用道具 举报

阿修罗kssi 发表于 2021-2-24 23:38:44

阿修罗kssi 7#

2021-2-24 23:38:44

找了 很久 多谢分享
回复 支持 反对

使用道具 举报

lpf199468L 发表于 6 天前

lpf199468L 8#

6 天前

多谢分享了!!
回复 支持 反对

使用道具 举报

   发表回复

您需要登录后才可以回帖 登录 | 立即注册

返回列表 本版积分规则

  • 在线客服

  • 返回顶部