微博 微信

Hao4K影音

电影频道
电影封面:
片  名: 皇冠高地4k
电影分类: 剧情 
国  家: 美国 
年  代: 2017年
分 辨 率: 4K(3840x2160)
电影格式: MKV|REMUX 
画质标准: HDR10 
音质编码: Dolby Digital Plus Audio 
电影声道: 5.1声道 
帧数/FPS: 23.976 FPS
电影语言: 中文简体 中文繁体 英文原版 
资源大小: 10.60 GB
导  演: 马特·罗斯金
豆瓣评分: 6.9 分
中文字幕: -
剧情简介: 本片是马特·拉斯金的第二部长片作品,讲述了美国一起轰动一时的错案,年仅18岁的科林·华纳被误判入狱,科林的童年玩伴为了证明朋友的清白,走上漫长的洗冤之路。
Darker Than Blue/皇冠高地4k Crown.Heights.2017.2160p.AMZN.WEB-DL.x265.10bit.HDR10plus.DDP5.1.电影信息
  1. Video
  2. ID : 1
  3. Format : HEVC
  4. Format/Info : High Efficiency Video Coding
  5. Format profile : Main 10@L5@Main
  6. HDR format : SMPTE ST 2094 App 4, Version 1, HDR10+ Profile B compatible
  7. Codec ID : V_MPEGH/ISO/HEVC
  8. Duration : 1 h 39 min
  9. Bit rate : 14.5 Mb/s
  10. Width : 3 840 pixels
  11. Height : 1 600 pixels
  12. Display aspect ratio : 2.40:1
  13. Frame rate mode : Constant
  14. Frame rate : 23.976 (24000/1001) FPS
  15. Color space : YUV
  16. Chroma subsampling : 4:2:0
  17. Bit depth : 10 bits
  18. Bits/(Pixel*Frame) : 0.099
  19. Stream size : 10.1 GiB (96%)
  20. Default : Yes
  21. Forced : No
  22. Color range : Limited
  23. Color primaries : BT.2020
  24. Transfer characteristics : PQ
  25. Matrix coefficients : BT.2020 non-constant
  26. Mastering display color primaries : Display P3
  27. Mastering display luminance : min: 0.0001 cd/m2, max: 1000 cd/m2
  28. Maximum Content Light Level : 1092 cd/m2
  29. Maximum Frame-Average Light Level : 257 cd/m2

  30. Audio
  31. ID : 2
  32. Format : E-AC-3
  33. Format/Info : Enhanced AC-3
  34. Commercial name : Dolby Digital Plus
  35. Codec ID : A_EAC3
  36. Duration : 1 h 39 min
  37. Bit rate mode : Constant
  38. Bit rate : 640 kb/s
  39. Channel(s) : 6 channels
  40. Channel layout : L R C LFE Ls Rs
  41. Sampling rate : 48.0 kHz
  42. Frame rate : 31.250 FPS (1536 SPF)
  43. Compression mode : Lossy
  44. Stream size : 458 MiB (4%)
  45. Title : DDP 5.1
  46. Language : English
  47. Service kind : Complete Main
  48. Default : Yes
  49. Forced : No

  50. Text #1
  51. ID : 3
  52. Format : UTF-8
  53. Codec ID : S_TEXT/UTF8
  54. Codec ID/Info : UTF-8 Plain Text
  55. Duration : 1 h 39 min
  56. Bit rate : 64 b/s
  57. Count of elements : 1599
  58. Stream size : 46.6 KiB (0%)
  59. Title : SDH
  60. Language : English
  61. Default : No
  62. Forced : No

  63. Text #2
  64. ID : 4
  65. Format : UTF-8
  66. Codec ID : S_TEXT/UTF8
  67. Codec ID/Info : UTF-8 Plain Text
  68. Duration : 1 h 38 min
  69. Bit rate : 76 b/s
  70. Count of elements : 1016
  71. Stream size : 55.6 KiB (0%)
  72. Language : Arabic
  73. Default : No
  74. Forced : No

  75. Text #3
  76. ID : 5
  77. Format : UTF-8
  78. Codec ID : S_TEXT/UTF8
  79. Codec ID/Info : UTF-8 Plain Text
  80. Duration : 1 h 38 min
  81. Bit rate : 41 b/s
  82. Count of elements : 1013
  83. Stream size : 30.2 KiB (0%)
  84. Language : Danish
  85. Default : No
  86. Forced : No

  87. Text #4
  88. ID : 6
  89. Format : UTF-8
  90. Codec ID : S_TEXT/UTF8
  91. Codec ID/Info : UTF-8 Plain Text
  92. Duration : 1 h 38 min
  93. Bit rate : 52 b/s
  94. Count of elements : 1015
  95. Stream size : 37.7 KiB (0%)
  96. Language : German
  97. Default : No
  98. Forced : No

  99. Text #5
  100. ID : 7
  101. Format : UTF-8
  102. Codec ID : S_TEXT/UTF8
  103. Codec ID/Info : UTF-8 Plain Text
  104. Duration : 1 h 38 min
  105. Bit rate : 47 b/s
  106. Count of elements : 1017
  107. Stream size : 34.2 KiB (0%)
  108. Title : España
  109. Language : Spanish
  110. Default : No
  111. Forced : No

  112. Text #6
  113. ID : 8
  114. Format : UTF-8
  115. Codec ID : S_TEXT/UTF8
  116. Codec ID/Info : UTF-8 Plain Text
  117. Duration : 1 h 38 min
  118. Bit rate : 50 b/s
  119. Count of elements : 1011
  120. Stream size : 36.8 KiB (0%)
  121. Language : Spanish
  122. Default : No
  123. Forced : No

  124. Text #7
  125. ID : 9
  126. Format : UTF-8
  127. Codec ID : S_TEXT/UTF8
  128. Codec ID/Info : UTF-8 Plain Text
  129. Duration : 1 h 38 min
  130. Bit rate : 49 b/s
  131. Count of elements : 1000
  132. Stream size : 35.8 KiB (0%)
  133. Language : Finnish
  134. Default : No
  135. Forced : No

  136. Text #8
  137. ID : 10
  138. Format : UTF-8
  139. Codec ID : S_TEXT/UTF8
  140. Codec ID/Info : UTF-8 Plain Text
  141. Duration : 1 h 38 min
  142. Bit rate : 53 b/s
  143. Count of elements : 1007
  144. Stream size : 38.8 KiB (0%)
  145. Language : French
  146. Default : No
  147. Forced : No

  148. Text #9
  149. ID : 11
  150. Format : UTF-8
  151. Codec ID : S_TEXT/UTF8
  152. Codec ID/Info : UTF-8 Plain Text
  153. Duration : 1 h 38 min
  154. Bit rate : 119 b/s
  155. Count of elements : 1023
  156. Stream size : 86.7 KiB (0%)
  157. Language : Hindi
  158. Default : No
  159. Forced : No

  160. Text #10
  161. ID : 12
  162. Format : UTF-8
  163. Codec ID : S_TEXT/UTF8
  164. Codec ID/Info : UTF-8 Plain Text
  165. Duration : 1 h 38 min
  166. Bit rate : 53 b/s
  167. Count of elements : 1039
  168. Stream size : 39.0 KiB (0%)
  169. Language : Indonesian
  170. Default : No
  171. Forced : No

  172. Text #11
  173. ID : 13
  174. Format : UTF-8
  175. Codec ID : S_TEXT/UTF8
  176. Codec ID/Info : UTF-8 Plain Text
  177. Duration : 1 h 38 min
  178. Bit rate : 49 b/s
  179. Count of elements : 1008
  180. Stream size : 35.5 KiB (0%)
  181. Language : Italian
  182. Default : No
  183. Forced : No

  184. Text #12
  185. ID : 14
  186. Format : UTF-8
  187. Codec ID : S_TEXT/UTF8
  188. Codec ID/Info : UTF-8 Plain Text
  189. Duration : 1 h 34 min
  190. Bit rate : 44 b/s
  191. Count of elements : 1055
  192. Stream size : 31.0 KiB (0%)
  193. Language : Japanese
  194. Default : No
  195. Forced : No

  196. Text #13
  197. ID : 15
  198. Format : UTF-8
  199. Codec ID : S_TEXT/UTF8
  200. Codec ID/Info : UTF-8 Plain Text
  201. Duration : 1 h 38 min
  202. Bit rate : 50 b/s
  203. Count of elements : 1025
  204. Stream size : 36.7 KiB (0%)
  205. Language : Korean
  206. Default : No
  207. Forced : No

  208. Text #14
  209. ID : 16
  210. Format : UTF-8
  211. Codec ID : S_TEXT/UTF8
  212. Codec ID/Info : UTF-8 Plain Text
  213. Duration : 1 h 38 min
  214. Bit rate : 50 b/s
  215. Count of elements : 1010
  216. Stream size : 36.9 KiB (0%)
  217. Language : Norwegian Bokmal
  218. Default : No
  219. Forced : No

  220. Text #15
  221. ID : 17
  222. Format : UTF-8
  223. Codec ID : S_TEXT/UTF8
  224. Codec ID/Info : UTF-8 Plain Text
  225. Duration : 1 h 38 min
  226. Bit rate : 49 b/s
  227. Count of elements : 948
  228. Stream size : 35.6 KiB (0%)
  229. Language : Dutch
  230. Default : No
  231. Forced : No

  232. Text #16
  233. ID : 18
  234. Format : UTF-8
  235. Codec ID : S_TEXT/UTF8
  236. Codec ID/Info : UTF-8 Plain Text
  237. Duration : 1 h 38 min
  238. Bit rate : 44 b/s
  239. Count of elements : 983
  240. Stream size : 32.5 KiB (0%)
  241. Language : Polish
  242. Default : No
  243. Forced : No

  244. Text #17
  245. ID : 19
  246. Format : UTF-8
  247. Codec ID : S_TEXT/UTF8
  248. Codec ID/Info : UTF-8 Plain Text
  249. Duration : 1 h 38 min
  250. Bit rate : 58 b/s
  251. Count of elements : 1057
  252. Stream size : 42.4 KiB (0%)
  253. Language : Portuguese
  254. Default : No
  255. Forced : No

  256. Text #18
  257. ID : 20
  258. Format : UTF-8
  259. Codec ID : S_TEXT/UTF8
  260. Codec ID/Info : UTF-8 Plain Text
  261. Duration : 1 h 38 min
  262. Bit rate : 80 b/s
  263. Count of elements : 1022
  264. Stream size : 58.3 KiB (0%)
  265. Language : Russian
  266. Default : No
  267. Forced : No

  268. Text #19
  269. ID : 21
  270. Format : UTF-8
  271. Codec ID : S_TEXT/UTF8
  272. Codec ID/Info : UTF-8 Plain Text
  273. Duration : 1 h 38 min
  274. Bit rate : 52 b/s
  275. Count of elements : 1012
  276. Stream size : 38.1 KiB (0%)
  277. Language : Swedish
  278. Default : No
  279. Forced : No

  280. Text #20
  281. ID : 22
  282. Format : UTF-8
  283. Codec ID : S_TEXT/UTF8
  284. Codec ID/Info : UTF-8 Plain Text
  285. Duration : 1 h 34 min
  286. Bit rate : 123 b/s
  287. Count of elements : 1069
  288. Stream size : 85.9 KiB (0%)
  289. Language : Thai
  290. Default : No
  291. Forced : No

  292. Text #21
  293. ID : 23
  294. Format : UTF-8
  295. Codec ID : S_TEXT/UTF8
  296. Codec ID/Info : UTF-8 Plain Text
  297. Duration : 1 h 38 min
  298. Bit rate : 54 b/s
  299. Count of elements : 1015
  300. Stream size : 39.6 KiB (0%)
  301. Language : Turkish
  302. Default : No
  303. Forced : No

  304. Text #22
  305. ID : 24
  306. Format : UTF-8
  307. Codec ID : S_TEXT/UTF8
  308. Codec ID/Info : UTF-8 Plain Text
  309. Duration : 1 h 38 min
  310. Bit rate : 44 b/s
  311. Count of elements : 1023
  312. Stream size : 32.4 KiB (0%)
  313. Title : Simplified
  314. Language : Chinese
  315. Default : No
  316. Forced : No

  317. Text #23
  318. ID : 25
  319. Format : UTF-8
  320. Codec ID : S_TEXT/UTF8
  321. Codec ID/Info : UTF-8 Plain Text
  322. Duration : 1 h 38 min
  323. Bit rate : 45 b/s
  324. Count of elements : 1020
  325. Stream size : 32.9 KiB (0%)
  326. Title : Traditional
  327. Language : Chinese
  328. Default : No
  329. Forced : No

  330. Menu
  331. 00:00:00.000 : en:Amazon Studios
  332. 00:00:19.000 : en:Studio Logos
  333. 00:00:45.000 : en:Another day in the life of Colin
  334. 00:04:39.000 : en:Colin walks home with his television
  335. 00:06:42.000 : en:Colin is taken into custody
  336. 00:08:50.000 : en:KC visits Colin
  337. 00:11:32.000 : en:KC makes law enforcement aware who the shooter is
  338. 00:13:43.000 : en:Colin dreams of being home
  339. 00:15:37.000 : en:Time stands still for Colin
  340. 00:17:33.000 : en:Colin\'s public defender gives Colin promising news
  341. 00:22:10.000 : en:The jury reaches a verdict
  342. 00:26:12.000 : en:Colin is transported to Dannemora
  343. 00:27:23.000 : en:Grace visits Colin in prison
  344. 00:29:43.000 : en:A little taste of home
  345. 00:31:13.000 : en:Colin finds himself in the midst of prison politics
  346. 00:34:10.000 : en:After 6 years Colin appeals his case
  347. 00:36:41.000 : en:Antoinette visits Colin
  348. 00:37:36.000 : en:Colin reaches his breaking point
  349. 00:40:59.000 : en:Antoinette and Colin exchange letters
  350. 00:45:16.000 : en:It takes money to get justice
  351. 00:47:07.000 : en:Colin has a conjugal visit fro Antoinette
  352. 00:49:39.000 : en:Logan represents Colin\'s case for a mistrial
  353. 00:51:36.000 : en:KC seeks alternative help
  354. 00:54:49.000 : en:Colin has his 15 year parole hearing
  355. 01:00:09.000 : en:Colin loses hope while KC perseveres
  356. 01:04:57.000 : en:KC\'s new investigation distracts him from his parenting duties
  357. 01:08:07.000 : en:Leon explains his experience to William and KC
  358. 01:12:41.000 : en:Anthony Gibson contacts the investigative team
  359. 01:16:12.000 : en:KC takes Leon to see one of Marvin\'s friends
  360. 01:19:20.000 : en:The team finds another eyewitness
  361. 01:25:12.000 : en:Colin\'s case gets attention from the media
  362. 01:28:16.000 : en:The court reviews Colin\'s case
  363. 01:30:33.000 : en:The taste of freedom
  364. 01:34:16.000 : en:End Credits
复制代码

Darker Than Blue/皇冠高地4k Crown.Heights.2017.2160p.AMZN.WEB-DL.x265.10bit.HDR10plus.DDP5.1.电影下载

皇冠高地4k Crown.Heights.2017.2160p.AMZN.WEB-DL.x265.10bit.HDR10plus.DDP5.1【10.60 GB】
[Hao4k]皇冠高地4k Crown.Heights.2017.2160p.AMZN.WEB-DL.x265.10bit.HDR10plus.DDP5.torrent (53.57 KB)
回复

使用道具 举报

全部回复5

dream0890 发表于 4 天前 Hao4K手机版

dream0890 沙发

4 天前

谢谢分享
回复 支持 反对

使用道具 举报

danielsun1228 发表于 4 天前

danielsun1228 板凳

4 天前

好片支持,慢慢收藏,不着急
回复 支持 反对

使用道具 举报

andywjhh 发表于 4 天前

andywjhh 地板

4 天前

感谢分享,楼主辛苦你了哦
回复 支持 反对

使用道具 举报

dyczw 发表于 3 天前

dyczw 5#

3 天前

感谢分享,辛苦了!
回复 支持 反对

使用道具 举报

yale 发表于 3 天前

yale 6#

3 天前

谢谢分享
回复 支持 反对

使用道具 举报

   发表回复

您需要登录后才可以回帖 登录 | 立即注册

返回列表 本版积分规则

  • 在线客服

  • 返回顶部