微博 微信

Hao4K影音

电影频道
电影封面:
片  名: 鲨鱼海洋:灭绝4k
电影分类: 纪录片 
国  家: 加拿大 
年  代: 2018年
分 辨 率: 4K(3840x2160)
电影格式: MKV|REMUX 
画质标准: SDR 
音质编码: Dolby Digital Plus Audio 
电影声道: 5.1声道 
帧数/FPS: 23.976 FPS
电影语言: 中文简体 中文繁体 英文原版 
资源大小: 7.25 GB
导  演: 罗布·斯图尔特
豆瓣评分: 8.7 分
中文字幕: -
剧情简介: Rob Stewart执导的纪录片电影,旨在保护鲨鱼这一物种,该片于2018年出品。
  该片以冷静的拍摄手法展示了本该是海洋霸主的鲨鱼,在人类社会却濒临灭绝的困境,特别是游走在各国法律边缘的捕鲨行业以及背后的种种腐败。斯图尔特跟踪拍摄了捕鲨行业,引起了观众的反思,也间接促进了一些国家的法律的改变,和民间鲨鱼保护团体的创建等。
鲨鱼海洋:灭绝4k Sharkwater.Extinction.2018.2160p.AMZN.WEB-DL.x265.8bit.SDR.DDP5.1.电影信息
  1. Video
  2. ID : 1
  3. Format : HEVC
  4. Format/Info : High Efficiency Video Coding
  5. Format profile : Main@L5@Main
  6. Codec ID : V_MPEGH/ISO/HEVC
  7. Duration : 1 h 24 min
  8. Bit rate : 11.6 Mb/s
  9. Width : 3 840 pixels
  10. Height : 2 160 pixels
  11. Display aspect ratio : 16:9
  12. Frame rate mode : Constant
  13. Frame rate : 23.976 (24000/1001) FPS
  14. Standard : NTSC
  15. Color space : YUV
  16. Chroma subsampling : 4:2:0
  17. Bit depth : 8 bits
  18. Bits/(Pixel*Frame) : 0.058
  19. Stream size : 6.86 GiB (95%)
  20. Writing library : x265 0.0:[Linux][GCC 4.8.2][64 bit] 8bit+10bit+12bit
  21. Encoding settings : cpuid=1173503 / frame-threads=2 / wpp / no-pmode / no-pme / psnr / ssim / log-level=2 / csvfn=/apollo/env/YoshiEncodingWorkflowActivitiesLinuxEncoding/var/tmp/737659305/f86e6569-9ee2-4cf2-b850-1e06e01a257c/7438274b-cdfe-4535-bf50-3f13888191c8_video_2160p_15000kbps.csv / csv-log-level=2 / input-csp=1 / input-res=3840x2160 / interlace=0 / total-frames=0 / level-idc=50 / high-tier=1 / uhd-bd=0 / ref=5 / no-allow-non-conformance / no-repeat-headers / annexb / no-aud / no-hrd / info / hash=0 / no-temporal-layers / no-open-gop / min-keyint=61 / keyint=120 / bframes=8 / b-adapt=2 / b-pyramid / bframe-bias=0 / rc-lookahead=120 / lookahead-slices=4 / scenecut=0 / no-intra-refresh / ctu=64 / min-cu-size=8 / rect / amp / max-tu-size=32 / tu-inter-depth=4 / tu-intra-depth=4 / limit-tu=4 / rdoq-level=2 / dynamic-rd=0.00 / no-ssim-rd / signhide / tskip / nr-intra=100 / nr-inter=600 / no-constrained-intra / strong-intra-smoothing / max-merge=3 / limit-refs=3 / limit-modes / me=3 / subme=3 / merange=57 / temporal-mvp / weightp / weightb / no-analyze-src-pics / deblock=0:0 / no-sao / no-sao-non-deblock / rd=4 / no-early-skip / no-rskip / no-fast-intra / tskip-fast / no-cu-lossless / b-intra / rdpenalty=0 / psy-rd=4.00 / psy-rdoq=10.00 / no-rd-refine / analysis-reuse-mode=0 / no-lossless / cbqpoffs=0 / crqpoffs=0 / rc=crf / crf=25.0 / qcomp=0.60 / qpstep=1 / stats-write=0 / stats-read=0 / vbv-maxrate=15000 / vbv-bufsize=20000 / vbv-init=0.9 / crf-max=0.0 / crf-min=0.0 / ipratio=1.10 / pbratio=1.00 / aq-mode=0 / aq-strength=1.50 / no-cutree / zone-count=0 / no-strict-cbr / qg-size=32 / rc-grain / qpmax=69 / qpmin=0 / const-vbv / sar=1 / overscan=0 / videoformat=2 / range=0 / colorprim=1 / transfer=1 / colormatrix=1 / chromaloc=0 / display-window=0 / max-cll=0,0 / min-luma=0 / max-luma=255 / log2-max-poc-lsb=8 / vui-timing-info / vui-hrd-info / slices=1 / opt-qp-pps / opt-ref-list-length-pps / no-multi-pass-opt-rps / scenecut-bias=0.05 / no-opt-cu-delta-qp / no-aq-motion / no-hdr / no-hdr-opt / no-dhdr10-opt / analysis-reuse-level=5 / scale-factor=0 / refine-intra=0 / refine-inter=0 / refine-mv=0 / no-limit-sao / ctu-info=0
  22. Default : Yes
  23. Forced : No
  24. Color range : Limited
  25. Color primaries : BT.709
  26. Transfer characteristics : BT.709
  27. Matrix coefficients : BT.709

  28. Audio
  29. ID : 2
  30. Format : E-AC-3
  31. Format/Info : Enhanced AC-3
  32. Commercial name : Dolby Digital Plus
  33. Codec ID : A_EAC3
  34. Duration : 1 h 24 min
  35. Bit rate mode : Constant
  36. Bit rate : 640 kb/s
  37. Channel(s) : 6 channels
  38. Channel layout : L R C LFE Ls Rs
  39. Sampling rate : 48.0 kHz
  40. Frame rate : 31.250 FPS (1536 SPF)
  41. Compression mode : Lossy
  42. Stream size : 387 MiB (5%)
  43. Title : English
  44. Language : English
  45. Service kind : Complete Main
  46. Default : No
  47. Forced : No

  48. Text #1
  49. ID : 3
  50. Format : UTF-8
  51. Codec ID : S_TEXT/UTF8
  52. Codec ID/Info : UTF-8 Plain Text
  53. Duration : 1 h 16 min
  54. Bit rate : 50 b/s
  55. Count of elements : 774
  56. Stream size : 28.5 KiB (0%)
  57. Title : Danish
  58. Language : Danish
  59. Default : No
  60. Forced : No

  61. Text #2
  62. ID : 4
  63. Format : UTF-8
  64. Codec ID : S_TEXT/UTF8
  65. Codec ID/Info : UTF-8 Plain Text
  66. Duration : 1 h 16 min
  67. Bit rate : 51 b/s
  68. Count of elements : 755
  69. Stream size : 29.2 KiB (0%)
  70. Title : Dutch
  71. Language : Dutch
  72. Default : No
  73. Forced : No

  74. Text #3
  75. ID : 5
  76. Format : UTF-8
  77. Codec ID : S_TEXT/UTF8
  78. Codec ID/Info : UTF-8 Plain Text
  79. Duration : 1 h 23 min
  80. Bit rate : 56 b/s
  81. Count of elements : 890
  82. Stream size : 34.6 KiB (0%)
  83. Title : Spanish
  84. Language : Spanish
  85. Default : No
  86. Forced : No

  87. Text #4
  88. ID : 6
  89. Format : UTF-8
  90. Codec ID : S_TEXT/UTF8
  91. Codec ID/Info : UTF-8 Plain Text
  92. Duration : 1 h 16 min
  93. Bit rate : 59 b/s
  94. Count of elements : 747
  95. Stream size : 33.4 KiB (0%)
  96. Title : Finnish
  97. Language : Finnish
  98. Default : No
  99. Forced : No

  100. Text #5
  101. ID : 7
  102. Format : UTF-8
  103. Codec ID : S_TEXT/UTF8
  104. Codec ID/Info : UTF-8 Plain Text
  105. Duration : 1 h 23 min
  106. Bit rate : 53 b/s
  107. Count of elements : 891
  108. Stream size : 32.8 KiB (0%)
  109. Title : Castilian
  110. Language : Spanish
  111. Default : No
  112. Forced : No

  113. Text #6
  114. ID : 8
  115. Format : UTF-8
  116. Codec ID : S_TEXT/UTF8
  117. Codec ID/Info : UTF-8 Plain Text
  118. Duration : 1 h 16 min
  119. Bit rate : 60 b/s
  120. Count of elements : 794
  121. Stream size : 34.3 KiB (0%)
  122. Title : Malay
  123. Language : Malay
  124. Default : No
  125. Forced : No

  126. Text #7
  127. ID : 9
  128. Format : UTF-8
  129. Codec ID : S_TEXT/UTF8
  130. Codec ID/Info : UTF-8 Plain Text
  131. Duration : 1 h 16 min
  132. Bit rate : 53 b/s
  133. Count of elements : 803
  134. Stream size : 29.8 KiB (0%)
  135. Title : Polish
  136. Language : Polish
  137. Default : No
  138. Forced : No

  139. Text #8
  140. ID : 10
  141. Format : UTF-8
  142. Codec ID : S_TEXT/UTF8
  143. Codec ID/Info : UTF-8 Plain Text
  144. Duration : 1 h 16 min
  145. Bit rate : 64 b/s
  146. Count of elements : 801
  147. Stream size : 36.3 KiB (0%)
  148. Title : Portuguese
  149. Language : Portuguese
  150. Default : No
  151. Forced : No

  152. Text #9
  153. ID : 11
  154. Format : UTF-8
  155. Codec ID : S_TEXT/UTF8
  156. Codec ID/Info : UTF-8 Plain Text
  157. Duration : 1 h 16 min
  158. Bit rate : 67 b/s
  159. Count of elements : 816
  160. Stream size : 37.8 KiB (0%)
  161. Title : Tagalog (Philippines)
  162. Language : Tagalog
  163. Default : No
  164. Forced : No

  165. Text #10
  166. ID : 12
  167. Format : UTF-8
  168. Codec ID : S_TEXT/UTF8
  169. Codec ID/Info : UTF-8 Plain Text
  170. Duration : 1 h 16 min
  171. Bit rate : 55 b/s
  172. Count of elements : 759
  173. Stream size : 31.1 KiB (0%)
  174. Title : Norwegian (Bokmål)
  175. Language : Norwegian Bokmal
  176. Default : No
  177. Forced : No

  178. Text #11
  179. ID : 13
  180. Format : UTF-8
  181. Codec ID : S_TEXT/UTF8
  182. Codec ID/Info : UTF-8 Plain Text
  183. Duration : 1 h 16 min
  184. Bit rate : 97 b/s
  185. Count of elements : 806
  186. Stream size : 54.8 KiB (0%)
  187. Title : Russian
  188. Language : Russian
  189. Default : No
  190. Forced : No

  191. Text #12
  192. ID : 14
  193. Format : UTF-8
  194. Codec ID : S_TEXT/UTF8
  195. Codec ID/Info : UTF-8 Plain Text
  196. Duration : 1 h 23 min
  197. Bit rate : 64 b/s
  198. Count of elements : 933
  199. Stream size : 39.3 KiB (0%)
  200. Title : French
  201. Language : French
  202. Default : No
  203. Forced : No

  204. Text #13
  205. ID : 15
  206. Format : UTF-8
  207. Codec ID : S_TEXT/UTF8
  208. Codec ID/Info : UTF-8 Plain Text
  209. Duration : 1 h 16 min
  210. Bit rate : 61 b/s
  211. Count of elements : 800
  212. Stream size : 34.4 KiB (0%)
  213. Title : Turkish
  214. Language : Turkish
  215. Default : No
  216. Forced : No

  217. Text #14
  218. ID : 16
  219. Format : UTF-8
  220. Codec ID : S_TEXT/UTF8
  221. Codec ID/Info : UTF-8 Plain Text
  222. Duration : 1 h 16 min
  223. Bit rate : 68 b/s
  224. Count of elements : 807
  225. Stream size : 38.3 KiB (0%)
  226. Title : Korean
  227. Language : Korean
  228. Default : No
  229. Forced : No

  230. Text #15
  231. ID : 17
  232. Format : UTF-8
  233. Codec ID : S_TEXT/UTF8
  234. Codec ID/Info : UTF-8 Plain Text
  235. Duration : 1 h 16 min
  236. Bit rate : 54 b/s
  237. Count of elements : 755
  238. Stream size : 30.7 KiB (0%)
  239. Title : Swedish
  240. Language : Swedish
  241. Default : No
  242. Forced : No

  243. Text #16
  244. ID : 18
  245. Format : UTF-8
  246. Codec ID : S_TEXT/UTF8
  247. Codec ID/Info : UTF-8 Plain Text
  248. Duration : 1 h 23 min
  249. Bit rate : 60 b/s
  250. Count of elements : 928
  251. Stream size : 37.0 KiB (0%)
  252. Title : Brazilian Portuguese
  253. Language : Portuguese
  254. Default : No
  255. Forced : No

  256. Text #17
  257. ID : 19
  258. Format : UTF-8
  259. Codec ID : S_TEXT/UTF8
  260. Codec ID/Info : UTF-8 Plain Text
  261. Duration : 1 h 23 min
  262. Bit rate : 51 b/s
  263. Count of elements : 737
  264. Stream size : 31.4 KiB (0%)
  265. Title : Japanese
  266. Language : Japanese
  267. Default : No
  268. Forced : No

  269. Text #18
  270. ID : 20
  271. Format : UTF-8
  272. Codec ID : S_TEXT/UTF8
  273. Codec ID/Info : UTF-8 Plain Text
  274. Duration : 1 h 16 min
  275. Bit rate : 50 b/s
  276. Count of elements : 807
  277. Stream size : 28.4 KiB (0%)
  278. Title : Chinese (Traditional)
  279. Language : Chinese
  280. Default : No
  281. Forced : No

  282. Text #19
  283. ID : 21
  284. Format : UTF-8
  285. Codec ID : S_TEXT/UTF8
  286. Codec ID/Info : UTF-8 Plain Text
  287. Duration : 1 h 23 min
  288. Bit rate : 55 b/s
  289. Count of elements : 928
  290. Stream size : 34.1 KiB (0%)
  291. Title : German
  292. Language : German
  293. Default : No
  294. Forced : No

  295. Text #20
  296. ID : 22
  297. Format : UTF-8
  298. Codec ID : S_TEXT/UTF8
  299. Codec ID/Info : UTF-8 Plain Text
  300. Duration : 1 h 16 min
  301. Bit rate : 91 b/s
  302. Count of elements : 808
  303. Stream size : 51.4 KiB (0%)
  304. Title : Hebrew
  305. Language : Hebrew
  306. Default : No
  307. Forced : No

  308. Text #21
  309. ID : 23
  310. Format : UTF-8
  311. Codec ID : S_TEXT/UTF8
  312. Codec ID/Info : UTF-8 Plain Text
  313. Duration : 1 h 16 min
  314. Bit rate : 57 b/s
  315. Count of elements : 802
  316. Stream size : 32.1 KiB (0%)
  317. Title : Indonesian
  318. Language : Indonesian
  319. Default : No
  320. Forced : No

  321. Text #22
  322. ID : 24
  323. Format : UTF-8
  324. Codec ID : S_TEXT/UTF8
  325. Codec ID/Info : UTF-8 Plain Text
  326. Duration : 1 h 21 min
  327. Bit rate : 64 b/s
  328. Count of elements : 957
  329. Stream size : 38.0 KiB (0%)
  330. Title : English [SDH]
  331. Language : English
  332. Default : No
  333. Forced : No

  334. Text #23
  335. ID : 25
  336. Format : UTF-8
  337. Codec ID : S_TEXT/UTF8
  338. Codec ID/Info : UTF-8 Plain Text
  339. Duration : 1 h 15 min
  340. Bit rate : 66 b/s
  341. Count of elements : 897
  342. Stream size : 36.8 KiB (0%)
  343. Title : English
  344. Language : English
  345. Default : No
  346. Forced : No

  347. Text #24
  348. ID : 26
  349. Format : UTF-8
  350. Codec ID : S_TEXT/UTF8
  351. Codec ID/Info : UTF-8 Plain Text
  352. Duration : 1 h 16 min
  353. Bit rate : 112 b/s
  354. Count of elements : 807
  355. Stream size : 63.1 KiB (0%)
  356. Title : Arabic
  357. Language : Arabic
  358. Default : No
  359. Forced : No

  360. Text #25
  361. ID : 27
  362. Format : UTF-8
  363. Codec ID : S_TEXT/UTF8
  364. Codec ID/Info : UTF-8 Plain Text
  365. Duration : 1 h 23 min
  366. Bit rate : 131 b/s
  367. Count of elements : 938
  368. Stream size : 80.7 KiB (0%)
  369. Title : Hindi
  370. Language : Hindi
  371. Default : No
  372. Forced : No

  373. Text #26
  374. ID : 28
  375. Format : UTF-8
  376. Codec ID : S_TEXT/UTF8
  377. Codec ID/Info : UTF-8 Plain Text
  378. Duration : 1 h 23 min
  379. Bit rate : 60 b/s
  380. Count of elements : 928
  381. Stream size : 37.2 KiB (0%)
  382. Title : Italian
  383. Language : Italian
  384. Default : No
  385. Forced : No

  386. Text #27
  387. ID : 29
  388. Format : UTF-8
  389. Codec ID : S_TEXT/UTF8
  390. Codec ID/Info : UTF-8 Plain Text
  391. Duration : 1 h 16 min
  392. Bit rate : 183 b/s
  393. Count of elements : 807
  394. Stream size : 103 KiB (0%)
  395. Title : Tamil
  396. Language : Tamil
  397. Default : No
  398. Forced : No

  399. Text #28
  400. ID : 30
  401. Format : UTF-8
  402. Codec ID : S_TEXT/UTF8
  403. Codec ID/Info : UTF-8 Plain Text
  404. Duration : 1 h 16 min
  405. Bit rate : 150 b/s
  406. Count of elements : 808
  407. Stream size : 84.4 KiB (0%)
  408. Title : Thai
  409. Language : Thai
  410. Default : No
  411. Forced : No

  412. Text #29
  413. ID : 31
  414. Format : UTF-8
  415. Codec ID : S_TEXT/UTF8
  416. Codec ID/Info : UTF-8 Plain Text
  417. Duration : 1 h 16 min
  418. Bit rate : 169 b/s
  419. Count of elements : 808
  420. Stream size : 95.4 KiB (0%)
  421. Title : Telugu
  422. Language : Telugu
  423. Default : No
  424. Forced : No

  425. Menu
  426. 00:00:00.000 : en:Studio Logo
  427. 00:00:32.000 : en:Title Sequence & Opening Credits
  428. 00:02:12.000 : en:Information about shark finning
  429. 00:03:08.000 : en:Title Sequence
  430. 00:03:15.000 : en:Sharks need protection
  431. 00:05:35.000 : en:The President answers all the questions
  432. 00:08:37.000 : en:William tells the hidden truth to the team
  433. 00:13:25.000 : en:Abraham warns the team about the danger
  434. 00:14:21.000 : en:William is scared of someone
  435. 00:16:00.000 : en:Regi has to leave due to threats
  436. 00:17:12.000 : en:A beautiful underwater world
  437. 00:19:56.000 : en:Sharks come to Cat Island, Bahamas in the month of May
  438. 00:23:49.000 : en:Rob interviews shark hunter
  439. 00:31:25.000 : en:Ecosystem\'s future is in danger
  440. 00:33:16.000 : en:Sharks are not safe anywhere
  441. 00:40:08.000 : en:Law and loopholes
  442. 00:42:25.000 : en:Innumerable blue sharks
  443. 00:47:11.000 : en:Hunting for drift nets
  444. 00:49:04.000 : en:World doesn\'t know the situation
  445. 00:54:45.000 : en:Shopping is so much of fun
  446. 00:58:03.000 : en:Shocking facts about the products
  447. 01:00:33.000 : en:The last drive
  448. 01:07:45.000 : en:Everybody is looking for Rob
  449. 01:10:23.000 : en:Message to world
  450. 01:13:15.000 : en:Epilogue
  451. 01:13:28.000 : en:Happy memories
  452. 01:17:52.000 : en:End Credits
复制代码

鲨鱼海洋:灭绝4k Sharkwater.Extinction.2018.2160p.AMZN.WEB-DL.x265.8bit.SDR.DDP5.1.电影下载

鲨鱼海洋:灭绝4k Sharkwater.Extinction.2018.2160p.AMZN.WEB-DL.x265.8bit.SDR.DDP5.1.电影下载
[Hao4k]鲨鱼海洋:灭绝4k Sharkwater.Extinction.2018.2160p.AMZN.WEB-DL.x265.8bit.S.torrent (36.81 KB, 售价: 2 K币)
回复

使用道具 举报

全部回复36

wwbg 发表于 2021-2-22 10:44:54

wwbg 沙发

2021-2-22 10:44:54

精彩纷呈谢谢分享
回复 支持 反对

使用道具 举报

ksbdanlums 发表于 2021-2-22 11:01:27 Hao4K手机版

ksbdanlums 板凳

2021-2-22 11:01:27

喜欢看纪录片,谢谢分享
回复 支持 反对

使用道具 举报

殷商后裔 发表于 2021-2-22 11:06:41

殷商后裔 地板

2021-2-22 11:06:41

感谢分享
回复 支持 反对

使用道具 举报

yangly 发表于 2021-2-22 11:15:29

yangly 5#

2021-2-22 11:15:29

喜欢看纪录片,谢谢分享
回复 支持 反对

使用道具 举报

ywf6168 发表于 2021-2-22 11:17:16

ywf6168 6#

2021-2-22 11:17:16

喜欢纪录片,谢谢分享
回复 支持 反对

使用道具 举报

zzszengzeng 发表于 2021-2-22 12:37:14

zzszengzeng 7#

2021-2-22 12:37:14

支持,喜欢纪录片
回复 支持 反对

使用道具 举报

andywjhh 发表于 2021-2-22 15:38:02

andywjhh 8#

2021-2-22 15:38:02

感谢分享,楼主辛苦你了哦
回复 支持 反对

使用道具 举报

bbgrnnji 发表于 2021-2-22 18:02:31

bbgrnnji 9#

2021-2-22 18:02:31

纪录片还是值得收藏的
回复 支持 反对

使用道具 举报

豌逗 发表于 2021-2-22 18:17:46

豌逗 10#

2021-2-22 18:17:46

我下了一堆纪录片,最后发现我确实没太在看
回复 支持 反对

使用道具 举报

highrpmclub 发表于 2021-2-22 19:55:37

highrpmclub 11#

2021-2-22 19:55:37

评分不低,感谢分享谢谢
回复 支持 反对

使用道具 举报

caojk 发表于 2021-2-22 20:10:42

caojk 12#

2021-2-22 20:10:42

谢谢分享这么好的影片,喜欢
回复 支持 反对

使用道具 举报

xiaoleiee313 发表于 2021-2-22 22:11:01 Hao4K手机版

xiaoleiee313 13#

2021-2-22 22:11:01

谢谢分享
回复 支持 反对

使用道具 举报

bbjiaofu 发表于 2021-2-22 22:24:22

bbjiaofu 14#

2021-2-22 22:24:22


谢谢分享
回复 支持 反对

使用道具 举报

dyczw 发表于 2021-2-23 06:33:28

dyczw 15#

2021-2-23 06:33:28

感谢分享,辛苦了
回复 支持 反对

使用道具 举报

laoxu_23 发表于 2021-2-23 11:41:44

laoxu_23 16#

2021-2-23 11:41:44

有字幕么?
回复 支持 反对

使用道具 举报

yale 发表于 2021-2-23 15:55:43

yale 17#

2021-2-23 15:55:43

谢谢分享
回复 支持 反对

使用道具 举报

QDLY1977 发表于 7 天前

QDLY1977 18#

7 天前

纪录片值得收藏 有时间看下
回复 支持 反对

使用道具 举报

   发表回复

您需要登录后才可以回帖 登录 | 立即注册

返回列表 本版积分规则

  • 在线客服

  • 返回顶部