微博 微信

Hao4K影音

电影频道
电影封面:
片  名: 触不可及4k
电影分类: 剧情 喜剧 
国  家: 美国 
年  代: 2017年
分 辨 率: 4K(3840x2160)
电影格式: MKV|REMUX 
画质标准: SDR 
音质编码: DTS-HD Master Audio 
电影声道: 5.1声道 
帧数/FPS: 23.976 FPS
电影语言: 中文简体 中文繁体 英文原版 
资源大小: 13.82 GB
导  演: 尼尔·博格
豆瓣评分: 7.7 分
中文字幕: -
剧情简介: 电影根据真人真事改编,由凯⽂·哈特、布莱恩·科兰斯顿、妮可·基德曼主演。科兰斯顿和哈特分饰瘫痪的⽩⼈富商Phillip和来⾃街头的⿊⼈男⼦Dell,妮可·基德曼则饰演Phillip的高冷管家。Dell因为有犯罪前科找不到⼯作,阴差阳错来照顾Phillip,背景天差地别的两⼈经历了嘀笑皆⾮的⼀系列故事后成了令⼈动容的莫逆之交。
美版触不可及 / 闪亮人生(港) / 活个精彩(台) / 上行 / 上升 / Untouchable/触不可及4k The.Upside.2017.2160p.AMZN.WEB-DL.x265.8bit.SDR.DTS-HD.MA.5.1.电影信息
  1. Video
  2. ID : 1
  3. Format : HEVC
  4. Format/Info : High Efficiency Video Coding
  5. Format profile : Main@L5@Main
  6. Codec ID : V_MPEGH/ISO/HEVC
  7. Duration : 2 h 5 min
  8. Bit rate : 11.5 Mb/s
  9. Width : 3 840 pixels
  10. Height : 2 080 pixels
  11. Display aspect ratio : 1.85:1
  12. Frame rate mode : Constant
  13. Frame rate : 23.976 (24000/1001) FPS
  14. Standard : NTSC
  15. Color space : YUV
  16. Chroma subsampling : 4:2:0
  17. Bit depth : 8 bits
  18. Bits/(Pixel*Frame) : 0.060
  19. Stream size : 10.1 GiB (73%)
  20. Writing library : x265 2.9_elemental+1-9e0607aa5b6f:[Linux][GCC 4.8.5][64 bit] 8bit+10bit+12bit
  21. Encoding settings : cpuid=1111039 / frame-threads=2 / wpp / no-pmode / no-pme / psnr / ssim / log-level=2 / csv / csv-log-level=2 / input-csp=1 / input-res=3840x2080 / interlace=0 / total-frames=0 / level-idc=50 / high-tier=1 / uhd-bd=0 / ref=5 / no-allow-non-conformance / no-repeat-headers / annexb / no-aud / no-hrd / info / hash=0 / no-temporal-layers / no-open-gop / min-keyint=61 / keyint=120 / gop-lookahead=0 / bframes=8 / b-adapt=2 / b-pyramid / bframe-bias=0 / rc-lookahead=120 / lookahead-slices=4 / scenecut=0 / radl=0 / no-intra-refresh / ctu=64 / min-cu-size=8 / rect / amp / max-tu-size=32 / tu-inter-depth=4 / tu-intra-depth=4 / limit-tu=4 / rdoq-level=2 / dynamic-rd=0.00 / no-ssim-rd / signhide / tskip / nr-intra=100 / nr-inter=600 / no-constrained-intra / strong-intra-smoothing / max-merge=3 / limit-refs=3 / limit-modes / me=3 / subme=3 / merange=57 / temporal-mvp / weightp / weightb / no-analyze-src-pics / deblock=0:0 / no-sao / no-sao-non-deblock / rd=4 / no-early-skip / no-rskip / no-fast-intra / tskip-fast / no-cu-lossless / b-intra / no-splitrd-skip / rdpenalty=0 / psy-rd=4.00 / psy-rdoq=10.00 / no-rd-refine / no-lossless / cbqpoffs=0 / crqpoffs=0 / rc=crf / crf=25.0 / qcomp=0.60 / qpstep=1 / stats-write=0 / stats-read=0 / vbv-maxrate=15000 / vbv-bufsize=20000 / vbv-init=0.9 / crf-max=0.0 / crf-min=0.0 / ipratio=1.10 / pbratio=1.00 / aq-mode=0 / aq-strength=1.50 / no-cutree / zone-count=0 / no-strict-cbr / qg-size=32 / rc-grain / qpmax=69 / qpmin=0 / const-vbv / sar=255 / sar-width / : / sar-height=481:480 / overscan=0 / videoformat=2 / range=0 / colorprim=1 / transfer=1 / colormatrix=1 / chromaloc=0 / display-window=0 / max-cll=0,0 / min-luma=0 / max-luma=255 / log2-max-poc-lsb=8 / vui-timing-info / vui-hrd-info / slices=1 / opt-qp-pps / no-opt-ref-list-length-pps / no-multi-pass-opt-rps / scenecut-bias=0.05 / no-opt-cu-delta-qp / no-aq-motion / no-hdr / no-hdr-opt / no-dhdr10-opt / no-idr-recovery-sei / analysis-reuse-level=5 / scale-factor=0 / refine-intra=0 / refine-inter=0 / refine-mv=0 / no-limit-sao / ctu-info=0 / no-lowpass-dct / refine-mv-type=0 / copy-pic=1 / max-ausize-factor=1.0 / no-dynamic-refine / no-single-sei
  22. Default : Yes
  23. Forced : No
  24. Color range : Limited
  25. Color primaries : BT.709
  26. Transfer characteristics : BT.709
  27. Matrix coefficients : BT.709

  28. Audio #1
  29. ID : 2
  30. Format : DTS XLL
  31. Format/Info : Digital Theater Systems
  32. Commercial name : DTS-HD Master Audio
  33. Codec ID : A_DTS
  34. Duration : 2 h 5 min
  35. Bit rate mode : Variable
  36. Bit rate : 3 553 kb/s
  37. Channel(s) : 6 channels
  38. Channel layout : C L R Ls Rs LFE
  39. Sampling rate : 48.0 kHz
  40. Frame rate : 93.750 FPS (512 SPF)
  41. Bit depth : 24 bits
  42. Compression mode : Lossless
  43. Delay relative to video : 1 s 505 ms
  44. Stream size : 3.12 GiB (23%)
  45. Title : DTS-HD MA 5.1
  46. Language : English
  47. Default : Yes
  48. Forced : No

  49. Audio #2
  50. ID : 3
  51. Format : E-AC-3
  52. Format/Info : Enhanced AC-3
  53. Commercial name : Dolby Digital Plus
  54. Codec ID : A_EAC3
  55. Duration : 2 h 5 min
  56. Bit rate mode : Constant
  57. Bit rate : 640 kb/s
  58. Channel(s) : 6 channels
  59. Channel layout : L R C LFE Ls Rs
  60. Sampling rate : 48.0 kHz
  61. Frame rate : 31.250 FPS (1536 SPF)
  62. Compression mode : Lossy
  63. Stream size : 576 MiB (4%)
  64. Title : DDP 5.1
  65. Language : English
  66. Service kind : Complete Main
  67. Default : No
  68. Forced : No

  69. Text #1
  70. ID : 4
  71. Format : UTF-8
  72. Codec ID : S_TEXT/UTF8
  73. Codec ID/Info : UTF-8 Plain Text
  74. Duration : 1 h 59 min
  75. Bit rate : 55 b/s
  76. Count of elements : 1674
  77. Stream size : 48.7 KiB (0%)
  78. Title : English
  79. Language : English
  80. Default : Yes
  81. Forced : No

  82. Text #2
  83. ID : 5
  84. Format : UTF-8
  85. Codec ID : S_TEXT/UTF8
  86. Codec ID/Info : UTF-8 Plain Text
  87. Duration : 2 h 2 min
  88. Bit rate : 62 b/s
  89. Count of elements : 1950
  90. Stream size : 56.6 KiB (0%)
  91. Title : English [SDH]
  92. Language : English
  93. Default : No
  94. Forced : No

  95. Text #3
  96. ID : 6
  97. Format : UTF-8
  98. Codec ID : S_TEXT/UTF8
  99. Codec ID/Info : UTF-8 Plain Text
  100. Duration : 1 h 59 min
  101. Bit rate : 58 b/s
  102. Count of elements : 1712
  103. Stream size : 51.4 KiB (0%)
  104. Title : Malay
  105. Language : Malay
  106. Default : No
  107. Forced : No

  108. Text #4
  109. ID : 7
  110. Format : UTF-8
  111. Codec ID : S_TEXT/UTF8
  112. Codec ID/Info : UTF-8 Plain Text
  113. Duration : 1 h 59 min
  114. Bit rate : 45 b/s
  115. Count of elements : 1705
  116. Stream size : 40.0 KiB (0%)
  117. Title : Danish
  118. Language : Danish
  119. Default : No
  120. Forced : No

  121. Text #5
  122. ID : 8
  123. Format : UTF-8
  124. Codec ID : S_TEXT/UTF8
  125. Codec ID/Info : UTF-8 Plain Text
  126. Duration : 2 h 4 min
  127. Bit rate : 40 b/s
  128. Count of elements : 1199
  129. Stream size : 36.7 KiB (0%)
  130. Title : Dutch
  131. Language : Dutch
  132. Default : No
  133. Forced : No

  134. Text #6
  135. ID : 9
  136. Format : UTF-8
  137. Codec ID : S_TEXT/UTF8
  138. Codec ID/Info : UTF-8 Plain Text
  139. Duration : 1 h 59 min
  140. Bit rate : 47 b/s
  141. Count of elements : 1278
  142. Stream size : 41.2 KiB (0%)
  143. Title : Norwegian (Bokmål)
  144. Language : Norwegian Bokmal
  145. Default : No
  146. Forced : No

  147. Text #7
  148. ID : 10
  149. Format : UTF-8
  150. Codec ID : S_TEXT/UTF8
  151. Codec ID/Info : UTF-8 Plain Text
  152. Duration : 2 h 4 min
  153. Bit rate : 47 b/s
  154. Count of elements : 1420
  155. Stream size : 43.2 KiB (0%)
  156. Title : German
  157. Language : German
  158. Default : No
  159. Forced : No

  160. Text #8
  161. ID : 11
  162. Format : UTF-8
  163. Codec ID : S_TEXT/UTF8
  164. Codec ID/Info : UTF-8 Plain Text
  165. Duration : 1 h 59 min
  166. Bit rate : 48 b/s
  167. Count of elements : 1587
  168. Stream size : 42.7 KiB (0%)
  169. Title : Finnish
  170. Language : Finnish
  171. Default : No
  172. Forced : No

  173. Text #9
  174. ID : 12
  175. Format : UTF-8
  176. Codec ID : S_TEXT/UTF8
  177. Codec ID/Info : UTF-8 Plain Text
  178. Duration : 1 h 57 min
  179. Bit rate : 49 b/s
  180. Count of elements : 1430
  181. Stream size : 42.3 KiB (0%)
  182. Title : Italian
  183. Language : Italian
  184. Default : No
  185. Forced : No

  186. Text #10
  187. ID : 13
  188. Format : UTF-8
  189. Codec ID : S_TEXT/UTF8
  190. Codec ID/Info : UTF-8 Plain Text
  191. Duration : 2 h 4 min
  192. Bit rate : 46 b/s
  193. Count of elements : 1528
  194. Stream size : 42.9 KiB (0%)
  195. Title : Brazilian Portuguese
  196. Language : Portuguese
  197. Default : No
  198. Forced : No

  199. Text #11
  200. ID : 14
  201. Format : UTF-8
  202. Codec ID : S_TEXT/UTF8
  203. Codec ID/Info : UTF-8 Plain Text
  204. Duration : 1 h 59 min
  205. Bit rate : 49 b/s
  206. Count of elements : 1702
  207. Stream size : 43.0 KiB (0%)
  208. Title : Portuguese
  209. Language : Portuguese
  210. Default : No
  211. Forced : No

  212. Text #12
  213. ID : 15
  214. Format : UTF-8
  215. Codec ID : S_TEXT/UTF8
  216. Codec ID/Info : UTF-8 Plain Text
  217. Duration : 2 h 4 min
  218. Bit rate : 44 b/s
  219. Count of elements : 1429
  220. Stream size : 40.7 KiB (0%)
  221. Title : Polish
  222. Language : Polish
  223. Default : No
  224. Forced : No

  225. Text #13
  226. ID : 16
  227. Format : UTF-8
  228. Codec ID : S_TEXT/UTF8
  229. Codec ID/Info : UTF-8 Plain Text
  230. Duration : 1 h 59 min
  231. Bit rate : 56 b/s
  232. Count of elements : 1707
  233. Stream size : 49.3 KiB (0%)
  234. Title : Tagalog (Philippines)
  235. Language : Tagalog
  236. Default : No
  237. Forced : No

  238. Text #14
  239. ID : 17
  240. Format : UTF-8
  241. Codec ID : S_TEXT/UTF8
  242. Codec ID/Info : UTF-8 Plain Text
  243. Duration : 1 h 59 min
  244. Bit rate : 71 b/s
  245. Count of elements : 1721
  246. Stream size : 62.6 KiB (0%)
  247. Title : Hebrew
  248. Language : Hebrew
  249. Default : No
  250. Forced : No

  251. Text #15
  252. ID : 18
  253. Format : UTF-8
  254. Codec ID : S_TEXT/UTF8
  255. Codec ID/Info : UTF-8 Plain Text
  256. Duration : 2 h 4 min
  257. Bit rate : 49 b/s
  258. Count of elements : 1487
  259. Stream size : 45.6 KiB (0%)
  260. Title : French
  261. Language : French
  262. Default : No
  263. Forced : No

  264. Text #16
  265. ID : 19
  266. Format : UTF-8
  267. Codec ID : S_TEXT/UTF8
  268. Codec ID/Info : UTF-8 Plain Text
  269. Duration : 1 h 59 min
  270. Bit rate : 50 b/s
  271. Count of elements : 1709
  272. Stream size : 44.3 KiB (0%)
  273. Title : Indonesian
  274. Language : Indonesian
  275. Default : No
  276. Forced : No

  277. Text #17
  278. ID : 20
  279. Format : UTF-8
  280. Codec ID : S_TEXT/UTF8
  281. Codec ID/Info : UTF-8 Plain Text
  282. Duration : 1 h 56 min
  283. Bit rate : 132 b/s
  284. Count of elements : 1779
  285. Stream size : 113 KiB (0%)
  286. Title : Thai
  287. Language : Thai
  288. Default : No
  289. Forced : No

  290. Text #18
  291. ID : 21
  292. Format : UTF-8
  293. Codec ID : S_TEXT/UTF8
  294. Codec ID/Info : UTF-8 Plain Text
  295. Duration : 2 h 4 min
  296. Bit rate : 41 b/s
  297. Count of elements : 1633
  298. Stream size : 37.9 KiB (0%)
  299. Title : Japanese
  300. Language : Japanese
  301. Default : No
  302. Forced : No

  303. Text #19
  304. ID : 22
  305. Format : UTF-8
  306. Codec ID : S_TEXT/UTF8
  307. Codec ID/Info : UTF-8 Plain Text
  308. Duration : 2 h 4 min
  309. Bit rate : 78 b/s
  310. Count of elements : 1540
  311. Stream size : 71.3 KiB (0%)
  312. Title : Arabic
  313. Language : Arabic
  314. Default : No
  315. Forced : No

  316. Text #20
  317. ID : 23
  318. Format : UTF-8
  319. Codec ID : S_TEXT/UTF8
  320. Codec ID/Info : UTF-8 Plain Text
  321. Duration : 2 h 4 min
  322. Bit rate : 51 b/s
  323. Count of elements : 1507
  324. Stream size : 47.4 KiB (0%)
  325. Title : Turkish
  326. Language : Turkish
  327. Default : No
  328. Forced : No

  329. Text #21
  330. ID : 24
  331. Format : UTF-8
  332. Codec ID : S_TEXT/UTF8
  333. Codec ID/Info : UTF-8 Plain Text
  334. Duration : 2 h 4 min
  335. Bit rate : 44 b/s
  336. Count of elements : 1541
  337. Stream size : 40.2 KiB (0%)
  338. Title : Chinese (Simplified)
  339. Language : Chinese
  340. Default : No
  341. Forced : No

  342. Text #22
  343. ID : 25
  344. Format : UTF-8
  345. Codec ID : S_TEXT/UTF8
  346. Codec ID/Info : UTF-8 Plain Text
  347. Duration : 1 h 59 min
  348. Bit rate : 49 b/s
  349. Count of elements : 1439
  350. Stream size : 43.6 KiB (0%)
  351. Title : Swedish
  352. Language : Swedish
  353. Default : No
  354. Forced : No

  355. Text #23
  356. ID : 26
  357. Format : UTF-8
  358. Codec ID : S_TEXT/UTF8
  359. Codec ID/Info : UTF-8 Plain Text
  360. Duration : 2 h 4 min
  361. Bit rate : 49 b/s
  362. Count of elements : 1535
  363. Stream size : 45.3 KiB (0%)
  364. Title : Castilian
  365. Language : Spanish
  366. Default : No
  367. Forced : No

  368. Text #24
  369. ID : 27
  370. Format : UTF-8
  371. Codec ID : S_TEXT/UTF8
  372. Codec ID/Info : UTF-8 Plain Text
  373. Duration : 2 h 4 min
  374. Bit rate : 136 b/s
  375. Count of elements : 1782
  376. Stream size : 125 KiB (0%)
  377. Title : Tamil
  378. Language : Tamil
  379. Default : No
  380. Forced : No

  381. Text #25
  382. ID : 28
  383. Format : UTF-8
  384. Codec ID : S_TEXT/UTF8
  385. Codec ID/Info : UTF-8 Plain Text
  386. Duration : 2 h 4 min
  387. Bit rate : 69 b/s
  388. Count of elements : 1540
  389. Stream size : 63.2 KiB (0%)
  390. Title : Russian
  391. Language : Russian
  392. Default : No
  393. Forced : No

  394. Text #26
  395. ID : 29
  396. Format : UTF-8
  397. Codec ID : S_TEXT/UTF8
  398. Codec ID/Info : UTF-8 Plain Text
  399. Duration : 2 h 4 min
  400. Bit rate : 52 b/s
  401. Count of elements : 1544
  402. Stream size : 48.0 KiB (0%)
  403. Title : Korean
  404. Language : Korean
  405. Default : No
  406. Forced : No

  407. Text #27
  408. ID : 30
  409. Format : UTF-8
  410. Codec ID : S_TEXT/UTF8
  411. Codec ID/Info : UTF-8 Plain Text
  412. Duration : 2 h 4 min
  413. Bit rate : 132 b/s
  414. Count of elements : 1544
  415. Stream size : 121 KiB (0%)
  416. Title : Hindi
  417. Language : Hindi
  418. Default : No
  419. Forced : No

  420. Text #28
  421. ID : 31
  422. Format : UTF-8
  423. Codec ID : S_TEXT/UTF8
  424. Codec ID/Info : UTF-8 Plain Text
  425. Duration : 2 h 4 min
  426. Bit rate : 47 b/s
  427. Count of elements : 1522
  428. Stream size : 43.7 KiB (0%)
  429. Title : Spanish
  430. Language : Spanish
  431. Default : No
  432. Forced : No

  433. Text #29
  434. ID : 32
  435. Format : UTF-8
  436. Codec ID : S_TEXT/UTF8
  437. Codec ID/Info : UTF-8 Plain Text
  438. Duration : 2 h 4 min
  439. Bit rate : 139 b/s
  440. Count of elements : 1780
  441. Stream size : 128 KiB (0%)
  442. Title : Telugu
  443. Language : Telugu
  444. Default : No
  445. Forced : No

  446. Text #30
  447. ID : 33
  448. Format : UTF-8
  449. Codec ID : S_TEXT/UTF8
  450. Codec ID/Info : UTF-8 Plain Text
  451. Duration : 2 h 4 min
  452. Bit rate : 48 b/s
  453. Count of elements : 1541
  454. Stream size : 44.2 KiB (0%)
  455. Title : Chinese (Traditional)
  456. Language : Chinese
  457. Default : No
  458. Forced : No

  459. Menu
  460. 00:00:00.000 : en:Studio Logo
  461. 00:00:37.000 : en:Title Sequence
  462. 00:01:07.000 : en:Dell has some fun in Philip\'s car
  463. 00:04:41.000 : en:Everyone has to make an effort
  464. 00:06:46.000 : en:Interviewing for Philip\'s new caregiver
  465. 00:15:34.000 : en:Dell goes to pick up Anthony
  466. 00:20:16.000 : en:Dreaming of better days
  467. 00:21:05.000 : en:Dell accepts the job offer
  468. 00:29:02.000 : en:Dell learns the ins and outs of his position
  469. 00:32:19.000 : en:A sleepless night for everyone
  470. 00:33:35.000 : en:Dell gets strike two
  471. 00:36:12.000 : en:A day in the life with Philip
  472. 00:41:05.000 : en:Dell wants to see Anthony
  473. 00:44:03.000 : en:Philip has an incident and tells Dell what happened
  474. 00:51:28.000 : en:Dell wins his bet
  475. 00:55:39.000 : en:Dell has to fill in for Maggie
  476. 01:00:17.000 : en:Dell brings over a surprise for Philip
  477. 01:01:17.000 : en:Dell and Phillip are at Opera
  478. 01:04:01.000 : en:Philip starts to pick up old habits
  479. 01:08:10.000 : en:Learning to enjoy life again
  480. 01:09:17.000 : en:An epistolary relationship
  481. 01:14:15.000 : en:It\'s important to encourage potential
  482. 01:17:07.000 : en:Philip spends time with Dell and Anthony
  483. 01:21:30.000 : en:A necessary release of anger
  484. 01:26:29.000 : en:Time to enjoy the party
  485. 01:33:51.000 : en:Philip meets Lily
  486. 01:42:27.000 : en:It\'s time to move forward
  487. 01:48:10.000 : en:Maybe Philip will listen to Dell
  488. 01:51:16.000 : en:Dell takes Philippe for a drive upstate
  489. 01:54:53.000 : en:The best is yet to come
  490. 01:58:25.000 : en:End Credits
复制代码

美版触不可及 / 闪亮人生(港) / 活个精彩(台) / 上行 / 上升 / Untouchable/触不可及4k The.Upside.2017.2160p.AMZN.WEB-DL.x265.8bit.SDR.DTS-HD.MA.5.1.电影下载

触不可及4k The.Upside.2017.2160p.AMZN.WEB-DL.x265.8bit.SDR.DTS-HD.MA.5.1-简繁中字【13.82 GB】
[Hao4k]触不可及4k The.Upside.2017.2160p.AMZN.WEB-DL.x265.8bit.SDR.DTS-HD.MA.5.1-.torrent (69.68 KB)
回复

使用道具 举报

全部回复41

罗洋 发表于 4 天前

罗洋 沙发

4 天前

这部片子好像蛮不错的。
回复 支持 反对

使用道具 举报

xxw8888 发表于 4 天前

xxw8888 板凳

4 天前

谢谢分享好影片
回复 支持 反对

使用道具 举报

danielsun1228 发表于 4 天前

danielsun1228 地板

4 天前

绝对好片,开始将以前的1080P以下的慢慢升级到以上,大工程
回复 支持 反对

使用道具 举报

reallyab 发表于 4 天前

reallyab 5#

4 天前

谢谢分享
回复 支持 反对

使用道具 举报

一笑3 发表于 4 天前

一笑3 6#

4 天前

谢谢分享
回复 支持 反对

使用道具 举报

崔德江ASDFG 发表于 4 天前

崔德江ASDFG 7#

4 天前

谢谢分享
回复 支持 反对

使用道具 举报

崔德江ASDFG 发表于 4 天前

崔德江ASDFG 8#

4 天前

谢谢分享
回复 支持 反对

使用道具 举报

迷失都市 发表于 4 天前 Hao4K手机版

迷失都市 9#

4 天前

支持一下
回复 支持 反对

使用道具 举报

watson_520 发表于 4 天前

watson_520 10#

4 天前

感谢分享
回复 支持 反对

使用道具 举报

jackpxy 发表于 4 天前

jackpxy 11#

4 天前

多谢分享
回复 支持 反对

使用道具 举报

andywjhh 发表于 4 天前

andywjhh 12#

4 天前

感谢分享,楼主辛苦你了哦
回复 支持 反对

使用道具 举报

hzlzd 发表于 4 天前

hzlzd 13#

4 天前

各位注意,这个是美版的触不可及,不是2011年法国的 Intouchables,那个是经典。当然这个也还不错啦。
回复 支持 2 反对 0

使用道具 举报

delarue 发表于 4 天前

delarue 14#

4 天前

第一次,看到了这个网站,真不错
回复 支持 反对

使用道具 举报

豌逗 发表于 4 天前 Hao4K手机版

豌逗 15#

4 天前

我说这电影怎么是07年出的,感觉好多年前看过了的,原来是翻拍的。
回复 支持 反对

使用道具 举报

然溪 发表于 4 天前

然溪 16#

4 天前

是美国翻拍的,不是原版
回复 支持 反对

使用道具 举报

fenrei 发表于 4 天前

fenrei 17#

4 天前

多谢分享
回复 支持 反对

使用道具 举报

liquan4444 发表于 4 天前

liquan4444 18#

4 天前

这部电影好好看
回复 支持 反对

使用道具 举报

   发表回复

您需要登录后才可以回帖 登录 | 立即注册

返回列表 本版积分规则

  • 在线客服

  • 返回顶部