微博 微信

Hao4K影音

General #1
Unique ID : 192966964937144498098360757942282543306 (0x912C15EA3585CCA68079058DC72EE0CA)
Complete name : Muse.Live.At.Rome.Olympic.Stadium.2013.2160p.UHDTV.HEVC.mkv
Format : Matroska
Format version : Version 4 / Version 2
File size : 25.1GiB
Duration : 1h 27mn
Overall bit rate mode : Variable
Overall bit rate : 41.1 Mbps
Encoded date : UTC 2016-02-13 15:22:51
Writing application : mkvmerge v8.8.0 ('Wind at my back') 64bit
Writing library : libebml v1.3.3 + libmatroska v1.4.4

Video #1
ID : 1
Format : HEVC
Format/Info : High Efficiency Video Coding
Format profile : High@L5.1@Main
Codec ID : V_MPEGH/ISO/HEVC
Duration : 1h 27mn
Bit rate : 29.5 Mbps
Width : 3840 pixels
Height : 2160 pixels
Display aspect ratio : 16:9
Frame rate mode : Constant
Frame rate : 59.940 fps (59940/1000) fps
Original frame rate : 60.000 fps
Color space : YUV
Chroma subsampling : 4:2:0
Bit depth : 10 bits
Bits/(Pixel*Frame) : 0.059
Stream size : 18.0 GiB (72%)
Title : Muse.Live.At.Rome.Olympic.Stadium.2013.2160p.UHDTV.HEVC-BtttS
Writing library : ATEME Titan KFE 3.6.2 (4.6.1.9)
Default : Yes
Forced : No

Audio #1
ID : 2
Format : DTS
Format/Info : Digital Theater Systems
Format profile : MA / 96/24 / Core
Mode : 16
Format settings, Endianness : Big
Codec ID : A_DTS
Duration : 1h 27mn
Bit rate mode : Variable / Constant / Constant
Bit rate : 8026 Kbps / 1509 Kbps / 1509 Kbps
Channel(s) : 6 channels
Channel positions : Front: L C R, Side: L R, LFE
Sampling rate : 96.0 KHz / 96.0 KHz / 48.0 KHz
frame rate : 93.750 fps (512 spf)
Bit depth : 24 bits
Compression mode : Lossless / Lossy / Lossy
Stream size : 4.89 GiB (20%)
Title : DTS-HD MA 5.1 24/96 from Blu-ray
Language : English
Default : Yes
Forced : No

Audio #2
ID : 3
Format : FLAC
Format/Info : Free Lossless Audio Codec
Codec ID : A_FLAC
Duration : 1h 27mn
Bit rate mode : Variable
Bit rate : 3141 Kbps
Channel(s) : 2 channels
Channel positions : Front: L R
Sampling rate : 96.0 KHz
frame rate : 83.333 fps (1152 spf)
Bit depth : 24 bits
Stream size : 1.92 GiB (8%)
Title : PCM stereo 24/96 from Blu-ray
Writing library : libFLAC 1.0.25 (UTC 2007-09-17)
Language : English
Default : No
Forced : No

Audio #3
ID : 4
Format : AC-3
Format/Info : Audio Coding 3
Mode extension : CM (complete main)
Format settings, Endianness : Big
Codec ID : A_AC3
Duration : 1h 27mn
Bit rate mode : Constant  
Bit rate : 384 Kbps  
Channel(s) : 6 channels
Channel positions : Front: L C R, Side: L R, LFE
Sampling rate : 48.0 KHz
Frame rate : 31.250 fps (1536 spf)
Compression mode : Lossy
Stream size : 240 MiB (1%)
Language : Korean
Default : No
Forced : No

Muse.Live.At.Rome.Olympic.Stadium.2013.2160p.UHDTV.HEVC.torrent (125.43 KB, 售价: 3 H币)
更多图片 小图 大图
组图打开中,请稍候......
回复

使用道具 举报

全部回复1

wayyuele 发表于 4 天前

wayyuele 沙发

4 天前

谢谢楼主的分享
回复 支持 反对

使用道具 举报

   发表回复

您需要登录后才可以回帖 登录 | 立即注册

返回列表 本版积分规则

  • 在线客服

  • 返回顶部