微博 微信

Hao4K影音

电影频道
电影封面:
片  名: 全力以赴:为民主而战4k
电影分类: 纪录片 
国  家: 美国 
年  代: 2020年
分 辨 率: 4K(3840x2160)
电影格式: MKV|REMUX 
画质标准: SDR 
音质编码: Dolby Digital Plus Audio 其他DD 
电影声道: 5.1声道 
帧数/FPS: 23.976 FPS
电影语言: 中文繁体 英文原版 
资源大小: 7.45 GB
导  演: Lisa Cortes / 莉兹·加伯斯
豆瓣评分: 6.4 分
中文字幕: -
剧情简介: The documentary takes a look at the history, and current activism against voter suppression; barriers to voting that most people don\'t even know is a threat to their basic rights as citizens of the United States.
全力一搏:為民主而戰(台)/全力以赴:为民主而战4k All.In.The.Fight.for.Democracy.2020.2160p.AMZN.WEB-DL.x265.8bit.SDR.DDP5.1.电影下载
  1. Video
  2. ID : 1
  3. Format : HEVC
  4. Format/Info : High Efficiency Video Coding
  5. Format profile : Main@L5@Main
  6. Codec ID : V_MPEGH/ISO/HEVC
  7. Duration : 1 h 42 min
  8. Bit rate : 9 781 kb/s
  9. Width : 3 840 pixels
  10. Height : 1 600 pixels
  11. Display aspect ratio : 2.40:1
  12. Frame rate mode : Constant
  13. Frame rate : 23.976 (24000/1001) FPS
  14. Standard : NTSC
  15. Color space : YUV
  16. Chroma subsampling : 4:2:0
  17. Bit depth : 8 bits
  18. Bits/(Pixel*Frame) : 0.066
  19. Stream size : 6.99 GiB (94%)
  20. Writing library : x265 2.9_elemental+1-9e0607aa5b6f:[Linux][GCC 4.8.5][64 bit] 8bit+10bit+12bit
  21. Encoding settings : cpuid=1111039 / frame-threads=2 / wpp / no-pmode / no-pme / psnr / ssim / log-level=2 / csv / csv-log-level=2 / input-csp=1 / input-res=3840x1600 / interlace=0 / total-frames=0 / level-idc=50 / high-tier=1 / uhd-bd=0 / ref=5 / no-allow-non-conformance / no-repeat-headers / annexb / no-aud / no-hrd / info / hash=0 / no-temporal-layers / no-open-gop / min-keyint=61 / keyint=120 / gop-lookahead=0 / bframes=8 / b-adapt=2 / b-pyramid / bframe-bias=0 / rc-lookahead=120 / lookahead-slices=4 / scenecut=0 / radl=0 / no-intra-refresh / ctu=64 / min-cu-size=8 / rect / amp / max-tu-size=32 / tu-inter-depth=4 / tu-intra-depth=4 / limit-tu=4 / rdoq-level=2 / dynamic-rd=0.00 / no-ssim-rd / signhide / tskip / nr-intra=100 / nr-inter=600 / no-constrained-intra / strong-intra-smoothing / max-merge=3 / limit-refs=3 / limit-modes / me=3 / subme=3 / merange=57 / temporal-mvp / weightp / weightb / no-analyze-src-pics / deblock=0:0 / no-sao / no-sao-non-deblock / rd=4 / no-early-skip / no-rskip / no-fast-intra / tskip-fast / no-cu-lossless / b-intra / no-splitrd-skip / rdpenalty=0 / psy-rd=4.00 / psy-rdoq=10.00 / no-rd-refine / no-lossless / cbqpoffs=0 / crqpoffs=0 / rc=crf / crf=25.0 / qcomp=0.60 / qpstep=1 / stats-write=0 / stats-read=0 / vbv-maxrate=15000 / vbv-bufsize=20000 / vbv-init=0.9 / crf-max=0.0 / crf-min=0.0 / ipratio=1.10 / pbratio=1.00 / aq-mode=0 / aq-strength=1.50 / no-cutree / zone-count=0 / no-strict-cbr / qg-size=32 / rc-grain / qpmax=69 / qpmin=0 / const-vbv / sar=1 / overscan=0 / videoformat=2 / range=0 / colorprim=1 / transfer=1 / colormatrix=1 / chromaloc=0 / display-window=0 / max-cll=0,0 / min-luma=0 / max-luma=255 / log2-max-poc-lsb=8 / vui-timing-info / vui-hrd-info / slices=1 / opt-qp-pps / no-opt-ref-list-length-pps / no-multi-pass-opt-rps / scenecut-bias=0.05 / no-opt-cu-delta-qp / no-aq-motion / no-hdr / no-hdr-opt / no-dhdr10-opt / no-idr-recovery-sei / analysis-reuse-level=5 / scale-factor=0 / refine-intra=0 / refine-inter=0 / refine-mv=0 / no-limit-sao / ctu-info=0 / no-lowpass-dct / refine-mv-type=0 / copy-pic=1 / max-ausize-factor=1.0 / no-dynamic-refine / no-single-sei
  22. Default : Yes
  23. Forced : No
  24. Color range : Limited
  25. Color primaries : BT.709
  26. Transfer characteristics : BT.709
  27. Matrix coefficients : BT.709

  28. Audio
  29. ID : 2
  30. Format : E-AC-3
  31. Format/Info : Enhanced AC-3
  32. Commercial name : Dolby Digital Plus
  33. Codec ID : A_EAC3
  34. Duration : 1 h 42 min
  35. Bit rate mode : Constant
  36. Bit rate : 640 kb/s
  37. Channel(s) : 6 channels
  38. Channel layout : L R C LFE Ls Rs
  39. Sampling rate : 48.0 kHz
  40. Frame rate : 31.250 FPS (1536 SPF)
  41. Compression mode : Lossy
  42. Stream size : 468 MiB (6%)
  43. Title : DDP 5.1
  44. Language : English
  45. Service kind : Complete Main
  46. Default : Yes
  47. Forced : No

  48. Text #1
  49. ID : 3
  50. Format : UTF-8
  51. Codec ID : S_TEXT/UTF8
  52. Codec ID/Info : UTF-8 Plain Text
  53. Duration : 1 h 39 min
  54. Bit rate : 95 b/s
  55. Count of elements : 1878
  56. Stream size : 69.7 KiB (0%)
  57. Language : English
  58. Default : Yes
  59. Forced : No

  60. Text #2
  61. ID : 4
  62. Format : UTF-8
  63. Codec ID : S_TEXT/UTF8
  64. Codec ID/Info : UTF-8 Plain Text
  65. Duration : 1 h 41 min
  66. Bit rate : 103 b/s
  67. Count of elements : 2053
  68. Stream size : 76.9 KiB (0%)
  69. Title : SDH
  70. Language : English
  71. Default : No
  72. Forced : No

  73. Text #3
  74. ID : 5
  75. Format : UTF-8
  76. Codec ID : S_TEXT/UTF8
  77. Codec ID/Info : UTF-8 Plain Text
  78. Duration : 1 h 39 min
  79. Bit rate : 102 b/s
  80. Count of elements : 1650
  81. Stream size : 74.6 KiB (0%)
  82. Language : Malay
  83. Default : No
  84. Forced : No

  85. Text #4
  86. ID : 6
  87. Format : UTF-8
  88. Codec ID : S_TEXT/UTF8
  89. Codec ID/Info : UTF-8 Plain Text
  90. Duration : 1 h 39 min
  91. Bit rate : 94 b/s
  92. Count of elements : 1536
  93. Stream size : 68.8 KiB (0%)
  94. Language : Danish
  95. Default : No
  96. Forced : No

  97. Text #5
  98. ID : 7
  99. Format : UTF-8
  100. Codec ID : S_TEXT/UTF8
  101. Codec ID/Info : UTF-8 Plain Text
  102. Duration : 1 h 39 min
  103. Bit rate : 93 b/s
  104. Count of elements : 1638
  105. Stream size : 68.0 KiB (0%)
  106. Language : German
  107. Default : No
  108. Forced : No

  109. Text #6
  110. ID : 8
  111. Format : UTF-8
  112. Codec ID : S_TEXT/UTF8
  113. Codec ID/Info : UTF-8 Plain Text
  114. Duration : 1 h 39 min
  115. Bit rate : 101 b/s
  116. Count of elements : 1649
  117. Stream size : 73.8 KiB (0%)
  118. Title : Español (España)
  119. Language : Spanish
  120. Default : No
  121. Forced : No

  122. Text #7
  123. ID : 9
  124. Format : UTF-8
  125. Codec ID : S_TEXT/UTF8
  126. Codec ID/Info : UTF-8 Plain Text
  127. Duration : 1 h 39 min
  128. Bit rate : 101 b/s
  129. Count of elements : 1649
  130. Stream size : 73.8 KiB (0%)
  131. Title : Español (Latinoamérica)
  132. Language : Spanish
  133. Default : No
  134. Forced : No

  135. Text #8
  136. ID : 10
  137. Format : UTF-8
  138. Codec ID : S_TEXT/UTF8
  139. Codec ID/Info : UTF-8 Plain Text
  140. Duration : 1 h 39 min
  141. Bit rate : 97 b/s
  142. Count of elements : 1647
  143. Stream size : 71.0 KiB (0%)
  144. Language : French
  145. Default : No
  146. Forced : No

  147. Text #9
  148. ID : 11
  149. Format : UTF-8
  150. Codec ID : S_TEXT/UTF8
  151. Codec ID/Info : UTF-8 Plain Text
  152. Duration : 1 h 39 min
  153. Bit rate : 91 b/s
  154. Count of elements : 1641
  155. Stream size : 66.6 KiB (0%)
  156. Language : Indonesian
  157. Default : No
  158. Forced : No

  159. Text #10
  160. ID : 12
  161. Format : UTF-8
  162. Codec ID : S_TEXT/UTF8
  163. Codec ID/Info : UTF-8 Plain Text
  164. Duration : 1 h 39 min
  165. Bit rate : 89 b/s
  166. Count of elements : 1618
  167. Stream size : 65.3 KiB (0%)
  168. Language : Italian
  169. Default : No
  170. Forced : No

  171. Text #11
  172. ID : 13
  173. Format : UTF-8
  174. Codec ID : S_TEXT/UTF8
  175. Codec ID/Info : UTF-8 Plain Text
  176. Duration : 1 h 39 min
  177. Bit rate : 92 b/s
  178. Count of elements : 1567
  179. Stream size : 67.3 KiB (0%)
  180. Language : Dutch
  181. Default : No
  182. Forced : No

  183. Text #12
  184. ID : 14
  185. Format : UTF-8
  186. Codec ID : S_TEXT/UTF8
  187. Codec ID/Info : UTF-8 Plain Text
  188. Duration : 1 h 39 min
  189. Bit rate : 88 b/s
  190. Count of elements : 1486
  191. Stream size : 64.6 KiB (0%)
  192. Language : Norwegian Bokmal
  193. Default : No
  194. Forced : No

  195. Text #13
  196. ID : 15
  197. Format : UTF-8
  198. Codec ID : S_TEXT/UTF8
  199. Codec ID/Info : UTF-8 Plain Text
  200. Duration : 1 h 39 min
  201. Bit rate : 97 b/s
  202. Count of elements : 1639
  203. Stream size : 70.6 KiB (0%)
  204. Title : Português (Brasil)
  205. Language : Portuguese
  206. Default : No
  207. Forced : No

  208. Text #14
  209. ID : 16
  210. Format : UTF-8
  211. Codec ID : S_TEXT/UTF8
  212. Codec ID/Info : UTF-8 Plain Text
  213. Duration : 1 h 39 min
  214. Bit rate : 97 b/s
  215. Count of elements : 1639
  216. Stream size : 70.6 KiB (0%)
  217. Title : Português (Portugal)
  218. Language : Portuguese
  219. Default : No
  220. Forced : No

  221. Text #15
  222. ID : 17
  223. Format : UTF-8
  224. Codec ID : S_TEXT/UTF8
  225. Codec ID/Info : UTF-8 Plain Text
  226. Duration : 1 h 39 min
  227. Bit rate : 101 b/s
  228. Count of elements : 1508
  229. Stream size : 73.7 KiB (0%)
  230. Language : Finnish
  231. Default : No
  232. Forced : No

  233. Text #16
  234. ID : 18
  235. Format : UTF-8
  236. Codec ID : S_TEXT/UTF8
  237. Codec ID/Info : UTF-8 Plain Text
  238. Duration : 1 h 39 min
  239. Bit rate : 93 b/s
  240. Count of elements : 1539
  241. Stream size : 68.1 KiB (0%)
  242. Language : Swedish
  243. Default : No
  244. Forced : No

  245. Text #17
  246. ID : 19
  247. Format : UTF-8
  248. Codec ID : S_TEXT/UTF8
  249. Codec ID/Info : UTF-8 Plain Text
  250. Duration : 1 h 39 min
  251. Bit rate : 95 b/s
  252. Count of elements : 1627
  253. Stream size : 69.6 KiB (0%)
  254. Language : Turkish
  255. Default : No
  256. Forced : No

  257. Text #18
  258. ID : 20
  259. Format : UTF-8
  260. Codec ID : S_TEXT/UTF8
  261. Codec ID/Info : UTF-8 Plain Text
  262. Duration : 1 h 39 min
  263. Bit rate : 159 b/s
  264. Count of elements : 1675
  265. Stream size : 116 KiB (0%)
  266. Language : Russian
  267. Default : No
  268. Forced : No

  269. Text #19
  270. ID : 21
  271. Format : UTF-8
  272. Codec ID : S_TEXT/UTF8
  273. Codec ID/Info : UTF-8 Plain Text
  274. Duration : 1 h 39 min
  275. Bit rate : 141 b/s
  276. Count of elements : 1662
  277. Stream size : 103 KiB (0%)
  278. Language : Hebrew
  279. Default : No
  280. Forced : No

  281. Text #20
  282. ID : 22
  283. Format : UTF-8
  284. Codec ID : S_TEXT/UTF8
  285. Codec ID/Info : UTF-8 Plain Text
  286. Duration : 1 h 39 min
  287. Bit rate : 156 b/s
  288. Count of elements : 1675
  289. Stream size : 113 KiB (0%)
  290. Language : Arabic
  291. Default : No
  292. Forced : No

  293. Text #21
  294. ID : 23
  295. Format : UTF-8
  296. Codec ID : S_TEXT/UTF8
  297. Codec ID/Info : UTF-8 Plain Text
  298. Duration : 1 h 39 min
  299. Bit rate : 240 b/s
  300. Count of elements : 1673
  301. Stream size : 175 KiB (0%)
  302. Language : Hindi
  303. Default : No
  304. Forced : No

  305. Text #22
  306. ID : 24
  307. Format : UTF-8
  308. Codec ID : S_TEXT/UTF8
  309. Codec ID/Info : UTF-8 Plain Text
  310. Duration : 1 h 39 min
  311. Bit rate : 112 b/s
  312. Count of elements : 1678
  313. Stream size : 81.9 KiB (0%)
  314. Language : Korean
  315. Default : No
  316. Forced : No

  317. Text #23
  318. ID : 25
  319. Format : UTF-8
  320. Codec ID : S_TEXT/UTF8
  321. Codec ID/Info : UTF-8 Plain Text
  322. Duration : 1 h 39 min
  323. Bit rate : 308 b/s
  324. Count of elements : 1675
  325. Stream size : 224 KiB (0%)
  326. Language : Tamil
  327. Default : No
  328. Forced : No

  329. Text #24
  330. ID : 26
  331. Format : UTF-8
  332. Codec ID : S_TEXT/UTF8
  333. Codec ID/Info : UTF-8 Plain Text
  334. Duration : 1 h 39 min
  335. Bit rate : 84 b/s
  336. Count of elements : 1675
  337. Stream size : 61.4 KiB (0%)
  338. Title : 中文(繁體)
  339. Language : Chinese
  340. Default : No
  341. Forced : No

  342. Text #25
  343. ID : 27
  344. Format : UTF-8
  345. Codec ID : S_TEXT/UTF8
  346. Codec ID/Info : UTF-8 Plain Text
  347. Duration : 1 h 41 min
  348. Bit rate : 107 b/s
  349. Count of elements : 1598
  350. Stream size : 79.9 KiB (0%)
  351. Language : Japanese
  352. Default : No
  353. Forced : No

  354. Menu
  355. 00:00:00.000 : en:Amazon Original
  356. 00:00:21.000 : en:Studio Logo
  357. 00:00:32.000 : en:November 6, 2018
  358. 00:02:42.000 : en:Vote matters
  359. 00:03:35.000 : en:Title Sequence
  360. 00:03:43.000 : en:Stacey talks about democracy
  361. 00:07:03.000 : en:Past is prologue
  362. 00:08:50.000 : en:Stacey talks about her parents
  363. 00:12:43.000 : en:Reconstruction era
  364. 00:16:44.000 : en:August 28, 1993
  365. 00:19:59.000 : en:19th Amendment
  366. 00:25:27.000 : en:Florida Constitution of 1868
  367. 00:26:52.000 : en:Desmond Meade
  368. 00:30:55.000 : en:1915
  369. 00:34:44.000 : en:Selma, Alabama
  370. 00:39:17.000 : en:Selma, Alabama: March 7, 1965
  371. 00:43:09.000 : en:March 15, 1965
  372. 00:46:38.000 : en:September, 2018
  373. 00:49:26.000 : en:Neshoba Country Fair: Mississippi, 1975
  374. 00:50:50.000 : en:August 6, 1975
  375. 00:52:57.000 : en:Tent City Jail, 2009
  376. 00:55:47.000 : en:November 4, 2008
  377. 00:58:05.000 : en:Shelby Country, Alabama
  378. 01:01:11.000 : en:February 27, 2013
  379. 01:03:27.000 : en:June 25, 2013
  380. 01:07:14.000 : en:New voter suppression laws
  381. 01:12:37.000 : en:Voter fraud
  382. 01:19:34.000 : en:Stacey\'s challenge
  383. 01:23:20.000 : en:Georgia Early Voting
  384. 01:24:57.000 : en:Election Day
  385. 01:33:24.000 : en:One vote at a time
  386. 01:37:35.000 : en:End Credits
复制代码

全力一搏:為民主而戰(台)/全力以赴:为民主而战4k All.In.The.Fight.for.Democracy.2020.2160p.AMZN.WEB-DL.x265.8bit.SDR.DDP5.1.电影下载

全力以赴:为民主而战4k All.In.The.Fight.for.Democracy.2020.2160p.AMZN.WEB-DL.x265.8bit.SDR.DDP5.1.【7.45 GB】
[Hao4k]全力以赴:为**而战4k All.In.The.Fight.for.Democracy.2020.2160p.AMZN.WEB.torrent (37.83 KB)
回复

使用道具 举报

全部回复17

acmelining 发表于 2021-2-22 20:33:04

acmelining 沙发

2021-2-22 20:33:04

感谢分享
回复 支持 反对

使用道具 举报

flashleo 发表于 2021-2-22 21:42:25

flashleo 板凳

2021-2-22 21:42:25

没有中文介绍 看不懂啊
回复 支持 反对

使用道具 举报

stevewin0329 发表于 2021-2-22 22:25:58

stevewin0329 地板

2021-2-22 22:25:58

感谢分享
回复 支持 反对

使用道具 举报

dyczw 发表于 2021-2-23 06:31:46

dyczw 5#

2021-2-23 06:31:46

感谢分享,辛苦了
回复 支持 反对

使用道具 举报

358567082 发表于 2021-2-23 08:59:42

358567082 6#

2021-2-23 08:59:42

佩服国外的纪录片什么都敢拍。。。
回复 支持 反对

使用道具 举报

笑傲江湖K 发表于 2021-2-23 09:11:58

笑傲江湖K 7#

2021-2-23 09:11:58


感谢分享,辛苦了
回复 支持 反对

使用道具 举报

ahs371 发表于 2021-2-23 10:51:03

ahs371 8#

2021-2-23 10:51:03

谢谢楼主的分享!
回复 支持 反对

使用道具 举报

andywjhh 发表于 2021-2-23 13:47:30

andywjhh 9#

2021-2-23 13:47:30

感谢分享~!
回复 支持 反对

使用道具 举报

yale 发表于 2021-2-23 15:53:35

yale 10#

2021-2-23 15:53:35

谢谢分享
回复 支持 反对

使用道具 举报

bbgrnnji 发表于 2021-2-23 22:47:54

bbgrnnji 11#

2021-2-23 22:47:54

最近纪录片不少啊
回复 支持 反对

使用道具 举报

凭顺意 发表于 2021-2-24 08:57:09

凭顺意 12#

2021-2-24 08:57:09

感谢分享,请教一下大神们,有没有中文字幕呢?
回复 支持 反对

使用道具 举报

huangzhongning 发表于 2021-2-24 13:55:33

huangzhongning 13#

2021-2-24 13:55:33

求大神上中文字幕
回复 支持 反对

使用道具 举报

kennethlin168 发表于 2021-2-24 17:23:22

kennethlin168 14#

2021-2-24 17:23:22

感谢分享
回复 支持 反对

使用道具 举报

旭日 发表于 2021-2-25 15:20:20

旭日 15#

2021-2-25 15:20:20

这个片子我不会下来看,从名字就看出来了,肯定是对美国民主的美化,对国人的洗脑。建议观看《这就是中国》
回复 支持 反对

使用道具 举报

LSXXSX 发表于 6 天前

LSXXSX 16#

6 天前

旭日 发表于 2021-2-25 15:20
这个片子我不会下来看,从名字就看出来了,肯定是对美国民主的美化,对国人的洗脑。建议观看《这就是中国》

不是人家给你洗脑,是你被洗脑洗脑洗傻了。
回复 支持 反对

使用道具 举报

zhouwenbo913 发表于 前天 21:01

zhouwenbo913 17#

前天 21:01

旭日 发表于 2021-2-25 15:20
这个片子我不会下来看,从名字就看出来了,肯定是对美国民主的美化,对国人的洗脑。建议观看《这就是中国》

我向往民主,不喜欢专制
回复 支持 反对

使用道具 举报

倾听 发表于 昨天 08:47 Hao4K手机版

倾听 18#

昨天 08:47

感谢分享这么好的电影楼主辛苦了
回复 支持 反对

使用道具 举报

   发表回复

您需要登录后才可以回帖 登录 | 立即注册

返回列表 本版积分规则

  • 在线客服

  • 返回顶部