微博 微信

Hao4K影音

电影频道
电影封面:
片  名: 幽灵之城4k
电影分类: 纪录片 
国  家: 美国 
年  代: 2017年
分 辨 率: 4K(3840x2160)
电影格式: MKV|REMUX 
画质标准: SDR 
音质编码: DTS-HD Master Audio 
电影声道: 5.1声道 
帧数/FPS: 23.976 FPS
电影语言: 英文原版 
资源大小: 11.07 GB
导  演: 马修·海涅曼
豆瓣评分: 8.0 分
中文字幕: -
剧情简介:  This is the story of a new type of warfare: a battle over ideas, over hearts and minds, over clicks and views.
  《幽灵城》(City of Ghosts) 导演:马修·海涅曼(Matthew Heineman) 入围2017年圣丹斯电影节
Miasto duchów/幽灵之城4k City.of.Ghosts.2017.2160p.AMZN.WEB-DL.x265.8bit.SDR.DTS-HD.MA.5.1.纪录片电影信息
  1. Video
  2. ID : 1
  3. Format : HEVC
  4. Format/Info : High Efficiency Video Coding
  5. Format profile : Main@L5@Main
  6. Codec ID : V_MPEGH/ISO/HEVC
  7. Duration : 1 h 32 min
  8. Bit rate : 12.9 Mb/s
  9. Width : 3 840 pixels
  10. Height : 2 160 pixels
  11. Display aspect ratio : 16:9
  12. Frame rate mode : Constant
  13. Frame rate : 23.976 (24000/1001) FPS
  14. Standard : NTSC
  15. Color space : YUV
  16. Chroma subsampling : 4:2:0
  17. Bit depth : 8 bits
  18. Bits/(Pixel*Frame) : 0.065
  19. Stream size : 8.29 GiB (75%)
  20. Writing library : x265 2.9_elemental+1-9e0607aa5b6f:[Linux][GCC 4.8.5][64 bit] 8bit+10bit+12bit
  21. Encoding settings : cpuid=1111039 / frame-threads=2 / wpp / no-pmode / no-pme / psnr / ssim / log-level=2 / csv / csv-log-level=2 / input-csp=1 / input-res=3840x2160 / interlace=0 / total-frames=0 / level-idc=50 / high-tier=1 / uhd-bd=0 / ref=5 / no-allow-non-conformance / no-repeat-headers / annexb / no-aud / no-hrd / info / hash=0 / no-temporal-layers / no-open-gop / min-keyint=61 / keyint=120 / gop-lookahead=0 / bframes=8 / b-adapt=2 / b-pyramid / bframe-bias=0 / rc-lookahead=120 / lookahead-slices=4 / scenecut=0 / radl=0 / no-intra-refresh / ctu=64 / min-cu-size=8 / rect / amp / max-tu-size=32 / tu-inter-depth=4 / tu-intra-depth=4 / limit-tu=4 / rdoq-level=2 / dynamic-rd=0.00 / no-ssim-rd / signhide / tskip / nr-intra=100 / nr-inter=600 / no-constrained-intra / strong-intra-smoothing / max-merge=3 / limit-refs=3 / limit-modes / me=3 / subme=3 / merange=57 / temporal-mvp / weightp / weightb / no-analyze-src-pics / deblock=0:0 / no-sao / no-sao-non-deblock / rd=4 / no-early-skip / no-rskip / no-fast-intra / tskip-fast / no-cu-lossless / b-intra / no-splitrd-skip / rdpenalty=0 / psy-rd=4.00 / psy-rdoq=10.00 / no-rd-refine / no-lossless / cbqpoffs=0 / crqpoffs=0 / rc=crf / crf=25.0 / qcomp=0.60 / qpstep=1 / stats-write=0 / stats-read=0 / vbv-maxrate=15000 / vbv-bufsize=20000 / vbv-init=0.9 / crf-max=0.0 / crf-min=0.0 / ipratio=1.10 / pbratio=1.00 / aq-mode=0 / aq-strength=1.50 / no-cutree / zone-count=0 / no-strict-cbr / qg-size=32 / rc-grain / qpmax=69 / qpmin=0 / const-vbv / sar=1 / overscan=0 / videoformat=2 / range=0 / colorprim=1 / transfer=1 / colormatrix=1 / chromaloc=0 / display-window=0 / max-cll=0,0 / min-luma=0 / max-luma=255 / log2-max-poc-lsb=8 / vui-timing-info / vui-hrd-info / slices=1 / opt-qp-pps / no-opt-ref-list-length-pps / no-multi-pass-opt-rps / scenecut-bias=0.05 / no-opt-cu-delta-qp / no-aq-motion / no-hdr / no-hdr-opt / no-dhdr10-opt / no-idr-recovery-sei / analysis-reuse-level=5 / scale-factor=0 / refine-intra=0 / refine-inter=0 / refine-mv=0 / no-limit-sao / ctu-info=0 / no-lowpass-dct / refine-mv-type=0 / copy-pic=1 / max-ausize-factor=1.0 / no-dynamic-refine / no-single-sei
  22. Default : Yes
  23. Forced : No
  24. Color range : Limited
  25. Color primaries : BT.709
  26. Transfer characteristics : BT.709
  27. Matrix coefficients : BT.709

  28. Audio #1
  29. ID : 2
  30. Format : DTS XLL
  31. Format/Info : Digital Theater Systems
  32. Commercial name : DTS-HD Master Audio
  33. Codec ID : A_DTS
  34. Duration : 1 h 32 min
  35. Bit rate mode : Variable
  36. Bit rate : 3 679 kb/s
  37. Channel(s) : 6 channels
  38. Channel layout : C L R Ls Rs LFE
  39. Sampling rate : 48.0 kHz
  40. Frame rate : 93.750 FPS (512 SPF)
  41. Bit depth : 24 bits
  42. Compression mode : Lossless
  43. Delay relative to video : 2 ms
  44. Stream size : 2.37 GiB (21%)
  45. Title : DTS-HD MA 5.1
  46. Language : English
  47. Default : Yes
  48. Forced : No

  49. Audio #2
  50. ID : 3
  51. Format : E-AC-3
  52. Format/Info : Enhanced AC-3
  53. Commercial name : Dolby Digital Plus
  54. Codec ID : A_EAC3
  55. Duration : 1 h 32 min
  56. Bit rate mode : Constant
  57. Bit rate : 640 kb/s
  58. Channel(s) : 6 channels
  59. Channel layout : L R C LFE Ls Rs
  60. Sampling rate : 48.0 kHz
  61. Frame rate : 31.250 FPS (1536 SPF)
  62. Compression mode : Lossy
  63. Stream size : 422 MiB (4%)
  64. Title : DDP 5.1
  65. Language : English
  66. Service kind : Complete Main
  67. Default : No
  68. Forced : No

  69. Text #1
  70. ID : 4
  71. Format : UTF-8
  72. Codec ID : S_TEXT/UTF8
  73. Codec ID/Info : UTF-8 Plain Text
  74. Duration : 1 h 31 min
  75. Bit rate : 13 b/s
  76. Count of elements : 453
  77. Stream size : 8.93 KiB (0%)
  78. Title : English-SRT
  79. Language : English
  80. Default : Yes
  81. Forced : No

  82. Text #2
  83. ID : 5
  84. Format : PGS
  85. Muxing mode : zlib
  86. Codec ID : S_HDMV/PGS
  87. Codec ID/Info : Picture based subtitle format used on BDs/HD-DVDs
  88. Duration : 1 h 31 min
  89. Bit rate : 7 150 b/s
  90. Count of elements : 1033
  91. Stream size : 4.67 MiB (0%)
  92. Title : English-PGS
  93. Language : English
  94. Default : No
  95. Forced : No

  96. Menu
  97. 00:00:00.000 : :Chapter 01
  98. 00:09:53.468 : :Chapter 02
  99. 00:18:55.259 : :Chapter 03
  100. 00:27:37.990 : :Chapter 04
  101. 00:37:48.057 : :Chapter 05
  102. 00:45:01.324 : :Chapter 06
  103. 00:49:46.609 : :Chapter 07
  104. 01:00:00.764 : :Chapter 08
  105. 01:04:55.850 : :Chapter 09
  106. 01:11:32.455 : :Chapter 10
  107. 01:19:45.531 : :Chapter 11
  108. 01:27:59.274 : :Chapter 12
复制代码

Miasto duchów/幽灵之城4k City.of.Ghosts.2017.2160p.AMZN.WEB-DL.x265.8bit.SDR.DTS-HD.MA.5.1.纪录片电影下载

幽灵之城4k City.of.Ghosts.2017.2160p.AMZN.WEB-DL.x265.8bit.SDR.DTS-HD.MA.5.1【11.07 GB】
[Hao4k]幽灵之城4k City.of.Ghosts.2017.2160p.AMZN.WEB-DL.x265.8bit.SDR.DTS-HD.MA..torrent (55.94 KB)
分享到:  QQ好友和群QQ好友和群
回复

使用道具 举报

全部回复23

沙发
liwei17911 发表于 6 天前

liwei17911 沙发

6 天前

谢谢分享
回复 支持 反对

使用道具 举报

板凳
leish 发表于 6 天前

leish 板凳

6 天前

记录片?讲什么内容呢?
回复 支持 反对

使用道具 举报

地板
chenjilong66 发表于 6 天前

chenjilong66 地板

6 天前

怎么都是纪录片讲剧情的啊???没火药味看着都打瞌睡,来点动作片好不好
回复 支持 反对

使用道具 举报

5#
flashleo 发表于 6 天前

flashleo 5#

6 天前

谢谢分享
回复 支持 反对

使用道具 举报

6#
dyczw 发表于 5 天前

dyczw 6#

5 天前

感谢分享,辛苦了
回复 支持 反对

使用道具 举报

7#
zengzzs 发表于 5 天前

zengzzs 7#

5 天前

支持了 纪录片也不错 不知道有没有中文
回复 支持 反对

使用道具 举报

8#
笑傲江湖K 发表于 5 天前

笑傲江湖K 8#

5 天前

感谢分享
回复 支持 反对

使用道具 举报

9#
ahs371 发表于 5 天前

ahs371 9#

5 天前

thank you very much!
回复 支持 反对

使用道具 举报

10#
andywjhh 发表于 5 天前

andywjhh 10#

5 天前

感谢分享~!
回复 支持 反对

使用道具 举报

11#
scp-173 发表于 5 天前

scp-173 11#

5 天前

感谢分享
回复 支持 反对

使用道具 举报

12#
ksbdanlums 发表于 5 天前 Hao4K手机版

ksbdanlums 12#

5 天前

谢谢分享,
回复 支持 反对

使用道具 举报

13#
yale 发表于 5 天前

yale 13#

5 天前

谢谢分享
回复 支持 反对

使用道具 举报

14#
JOKER1169070154 发表于 5 天前

JOKER1169070154 14#

5 天前

感谢分享
回复 支持 反对

使用道具 举报

15#
xiaogangpao 发表于 5 天前

xiaogangpao 15#

5 天前

感谢分享、
回复 支持 反对

使用道具 举报

16#
kennethlin168 发表于 5 天前

kennethlin168 16#

5 天前


谢谢分享
回复 支持 反对

使用道具 举报

17#
sll6823879 发表于 4 天前

sll6823879 17#

4 天前

感谢分享~~
回复 支持 反对

使用道具 举报

18#
watson_520 发表于 4 天前

watson_520 18#

4 天前

这是什么片呀
回复 支持 反对

使用道具 举报

   发表回复

您需要登录后才可以回帖 登录 | 立即注册

返回列表 本版积分规则

  • 在线客服

  • 返回顶部