微博 微信

Hao4K影音

电影频道
电影封面:
片  名: 一代财富4K
电影分类: 纪录片 
国  家: 美国 
年  代: 2018年
分 辨 率: 4K(3840x2160)
电影格式: MKV|REMUX 
画质标准: SDR 
音质编码: DTS-HD Master Audio 
电影声道: 5.1声道 
帧数/FPS: 23.976 FPS
电影语言: 英文原版 
资源大小: 9.35 GB
导  演: 劳伦·格林菲尔德
豆瓣评分: 7.6 分
中文字幕: -
剧情简介: 该片跨越25年拍摄而成,深入探讨我们集体对于财富和名气的迷恋与追求。
财富世代/一代财富4K.Generation.Wealth.2018.2160p.AMZN.WEB-DL.x265.8bit.SDR.DTS-HD.MA.5.1-4k电影信息
  1. Video
  2. ID : 1
  3. Format : HEVC
  4. Format/Info : High Efficiency Video Coding
  5. Format profile : Main@L5@Main
  6. Codec ID : V_MPEGH/ISO/HEVC
  7. Duration : 1 h 46 min
  8. Bit rate : 8 646 kb/s
  9. Width : 3 840 pixels
  10. Height : 2 160 pixels
  11. Display aspect ratio : 16:9
  12. Frame rate mode : Constant
  13. Frame rate : 23.976 (24000/1001) FPS
  14. Standard : NTSC
  15. Color space : YUV
  16. Chroma subsampling : 4:2:0
  17. Bit depth : 8 bits
  18. Bits/(Pixel*Frame) : 0.043
  19. Stream size : 6.40 GiB (68%)
  20. Writing library : x265 0.0:[Linux][GCC 4.8.2][64 bit] 8bit+10bit+12bit
  21. Encoding settings : cpuid=1173503 / frame-threads=2 / wpp / no-pmode / no-pme / psnr / ssim / log-level=2 / csvfn=/apollo/env/YoshiEncodingWorkflowActivitiesLinuxEncoding/var/tmp/2087941741/21a4c578-4b1c-4955-8452-66737fa860c4/15f2faed-8df4-4714-bd7a-819e04efbac3_video_2160p_15000kbps.csv / csv-log-level=2 / input-csp=1 / input-res=3840x2160 / interlace=0 / total-frames=0 / level-idc=50 / high-tier=1 / uhd-bd=0 / ref=5 / no-allow-non-conformance / no-repeat-headers / annexb / no-aud / no-hrd / info / hash=0 / no-temporal-layers / no-open-gop / min-keyint=61 / keyint=120 / bframes=8 / b-adapt=2 / b-pyramid / bframe-bias=0 / rc-lookahead=120 / lookahead-slices=4 / scenecut=0 / no-intra-refresh / ctu=64 / min-cu-size=8 / rect / amp / max-tu-size=32 / tu-inter-depth=4 / tu-intra-depth=4 / limit-tu=4 / rdoq-level=2 / dynamic-rd=0.00 / no-ssim-rd / signhide / tskip / nr-intra=100 / nr-inter=600 / no-constrained-intra / strong-intra-smoothing / max-merge=3 / limit-refs=3 / limit-modes / me=3 / subme=3 / merange=57 / temporal-mvp / weightp / weightb / no-analyze-src-pics / deblock=0:0 / no-sao / no-sao-non-deblock / rd=4 / no-early-skip / no-rskip / no-fast-intra / tskip-fast / no-cu-lossless / b-intra / rdpenalty=0 / psy-rd=4.00 / psy-rdoq=10.00 / no-rd-refine / analysis-reuse-mode=0 / no-lossless / cbqpoffs=0 / crqpoffs=0 / rc=crf / crf=25.0 / qcomp=0.60 / qpstep=1 / stats-write=0 / stats-read=0 / vbv-maxrate=15000 / vbv-bufsize=20000 / vbv-init=0.9 / crf-max=0.0 / crf-min=0.0 / ipratio=1.10 / pbratio=1.00 / aq-mode=0 / aq-strength=1.50 / no-cutree / zone-count=0 / no-strict-cbr / qg-size=32 / rc-grain / qpmax=69 / qpmin=0 / const-vbv / sar=1 / overscan=0 / videoformat=2 / range=0 / colorprim=1 / transfer=1 / colormatrix=1 / chromaloc=0 / display-window=0 / max-cll=0,0 / min-luma=0 / max-luma=255 / log2-max-poc-lsb=8 / vui-timing-info / vui-hrd-info / slices=1 / opt-qp-pps / opt-ref-list-length-pps / no-multi-pass-opt-rps / scenecut-bias=0.05 / no-opt-cu-delta-qp / no-aq-motion / no-hdr / no-hdr-opt / no-dhdr10-opt / analysis-reuse-level=5 / scale-factor=0 / refine-intra=0 / refine-inter=0 / refine-mv=0 / no-limit-sao / ctu-info=0
  22. Default : Yes
  23. Forced : No
  24. Color range : Limited
  25. Color primaries : BT.709
  26. Transfer characteristics : BT.709
  27. Matrix coefficients : BT.709

  28. Audio #1
  29. ID : 2
  30. Format : DTS XLL
  31. Format/Info : Digital Theater Systems
  32. Commercial name : DTS-HD Master Audio
  33. Codec ID : A_DTS
  34. Duration : 1 h 46 min
  35. Bit rate mode : Variable
  36. Bit rate : 3 333 kb/s
  37. Channel(s) : 6 channels
  38. Channel layout : C L R Ls Rs LFE
  39. Sampling rate : 48.0 kHz
  40. Frame rate : 93.750 FPS (512 SPF)
  41. Bit depth : 24 bits
  42. Compression mode : Lossless
  43. Delay relative to video : 3 ms
  44. Stream size : 2.47 GiB (26%)
  45. Title : DTS-HD MA 5.1
  46. Language : English
  47. Default : Yes
  48. Forced : No

  49. Audio #2
  50. ID : 3
  51. Format : E-AC-3
  52. Format/Info : Enhanced AC-3
  53. Commercial name : Dolby Digital Plus
  54. Codec ID : A_EAC3
  55. Duration : 1 h 46 min
  56. Bit rate mode : Constant
  57. Bit rate : 640 kb/s
  58. Channel(s) : 6 channels
  59. Channel layout : L R C LFE Ls Rs
  60. Sampling rate : 48.0 kHz
  61. Frame rate : 31.250 FPS (1536 SPF)
  62. Compression mode : Lossy
  63. Stream size : 485 MiB (5%)
  64. Title : DDP 5.1
  65. Language : English
  66. Service kind : Complete Main
  67. Default : No
  68. Forced : No

  69. Text #1
  70. ID : 4
  71. Format : UTF-8
  72. Codec ID : S_TEXT/UTF8
  73. Codec ID/Info : UTF-8 Plain Text
  74. Duration : 1 h 42 min
  75. Bit rate : 92 b/s
  76. Count of elements : 1602
  77. Stream size : 69.4 KiB (0%)
  78. Language : English
  79. Default : Yes
  80. Forced : No

  81. Text #2
  82. ID : 5
  83. Format : UTF-8
  84. Codec ID : S_TEXT/UTF8
  85. Codec ID/Info : UTF-8 Plain Text
  86. Duration : 1 h 45 min
  87. Bit rate : 139 b/s
  88. Count of elements : 1871
  89. Stream size : 108 KiB (0%)
  90. Language : Arabic
  91. Default : No
  92. Forced : No

  93. Text #3
  94. ID : 6
  95. Format : UTF-8
  96. Codec ID : S_TEXT/UTF8
  97. Codec ID/Info : UTF-8 Plain Text
  98. Duration : 1 h 45 min
  99. Bit rate : 83 b/s
  100. Count of elements : 1813
  101. Stream size : 64.2 KiB (0%)
  102. Language : Danish
  103. Default : No
  104. Forced : No

  105. Text #4
  106. ID : 7
  107. Format : UTF-8
  108. Codec ID : S_TEXT/UTF8
  109. Codec ID/Info : UTF-8 Plain Text
  110. Duration : 1 h 45 min
  111. Bit rate : 86 b/s
  112. Count of elements : 1773
  113. Stream size : 66.9 KiB (0%)
  114. Language : German
  115. Default : No
  116. Forced : No


  117. Text #25
  118. ID : 28
  119. Format : UTF-8
  120. Codec ID : S_TEXT/UTF8
  121. Codec ID/Info : UTF-8 Plain Text
  122. Duration : 1 h 45 min
  123. Bit rate : 75 b/s
  124. Count of elements : 1878
  125. Stream size : 58.8 KiB (0%)
  126. Title : Simplified
  127. Language : Chinese
  128. Default : No
  129. Forced : No

  130. Text #26
  131. ID : 29
  132. Format : UTF-8
  133. Codec ID : S_TEXT/UTF8
  134. Codec ID/Info : UTF-8 Plain Text
  135. Duration : 1 h 45 min
  136. Bit rate : 77 b/s
  137. Count of elements : 1876
  138. Stream size : 59.6 KiB (0%)
  139. Title : Traditional
  140. Language : Chinese
  141. Default : No
  142. Forced : No

  143. Menu
  144. 00:00:00.000 : en:Studio Logos
  145. 00:00:27.000 : en:Title Sequence
  146. 00:03:05.000 : en:Photographer Lauren Greenfield talks about her project inspiration
  147. 00:06:16.000 : en:Lauren revisits past subjects
  148. 00:12:08.000 : en:Lauren reflects on her high school years
  149. 00:13:38.000 : en:The American dream has changed
  150. 00:16:04.000 : en:The abandonment of the gold standard
  151. 00:20:33.000 : en:Appearances are everything
  152. 00:25:25.000 : en:What happens when you let the global banks open the floodgates
  153. 00:32:46.000 : en:Beauty isn\'t really subjective
  154. 00:36:23.000 : en:We live in an hyper-sexual culture
  155. 00:43:36.000 : en:Capitalism extends to human bodies
  156. 00:49:38.000 : en:Beauty is more than skin deep
  157. 00:58:11.000 : en:Wealth is more than money, it\'s what gives us value
  158. 01:06:13.000 : en:The financial crash of 2008 effected everyone differently
  159. 01:09:37.000 : en:What legacy will you leave behind
  160. 01:21:42.000 : en:People seek ways to escape their reality
  161. 01:23:10.000 : en:There are benefits to starting over
  162. 01:32:21.000 : en:Parents don\'t want to see their children struggle
  163. 01:37:09.000 : en:The culmination of a generation of wealth
  164. 01:41:35.000 : en:Be careful what you wish for
  165. 01:43:06.000 : en:End Credits
复制代码

财富世代/一代财富4K.Generation.Wealth.2018.2160p.AMZN.WEB-DL.x265.8bit.SDR.DTS-HD.MA.5.1-4K电影下载

一代财富4K.Generation.Wealth.2018.2160p.AMZN.WEB-DL.x265.8bit.SDR.DTS-HD.MA.5.1【4K SDR 9.35 GB】
[Hao4K]一代财富4K.Generation.Wealth.2018.2160p.AMZN.WEB-DL.x265.8bit.SDR.DTS-HD..torrent (47.35 KB, 售价: 2 K币)
回复

使用道具 举报

全部回复16

dyczw 发表于 4 天前

dyczw 沙发

4 天前

感谢分享,辛苦了
回复 支持 反对

使用道具 举报

Makoto8023 发表于 4 天前

Makoto8023 板凳

4 天前

谢谢分享
回复 支持 反对

使用道具 举报

zzszengzeng 发表于 4 天前

zzszengzeng 地板

4 天前

支持纪录片,感谢分享
回复 支持 反对

使用道具 举报

yangly 发表于 4 天前

yangly 5#

4 天前

感谢楼主谢谢分享
回复 支持 反对

使用道具 举报

panbell 发表于 4 天前

panbell 6#

4 天前

感谢楼主!谢谢分享!
回复 支持 反对

使用道具 举报

andywjhh 发表于 4 天前

andywjhh 7#

4 天前

感谢分享~!
回复 支持 反对

使用道具 举报

scp-173 发表于 4 天前

scp-173 8#

4 天前

感谢分享
回复 支持 反对

使用道具 举报

yale 发表于 4 天前

yale 9#

4 天前

谢谢分享
回复 支持 反对

使用道具 举报

bbgrnnji 发表于 3 天前

bbgrnnji 10#

3 天前

非常的感谢,收了
回复 支持 反对

使用道具 举报

panbell 发表于 3 天前

panbell 11#

3 天前

非常的感谢
回复 支持 反对

使用道具 举报

wch3715 发表于 3 天前

wch3715 12#

3 天前

支持纪录片,感谢分享
回复 支持 反对

使用道具 举报

r31325 发表于 3 天前

r31325 13#

3 天前

是富二代的意思吗?
回复 支持 反对

使用道具 举报

jj123kk123 发表于 3 天前

jj123kk123 14#

3 天前

感谢大佬的分享
回复 支持 反对

使用道具 举报

LENNY9527 发表于 前天 01:17

LENNY9527 15#

前天 01:17

感谢分享
回复 支持 反对

使用道具 举报

evan206 发表于 前天 16:22

evan206 16#

前天 16:22

注册后下载的第一个资源
回复 支持 反对

使用道具 举报

robbiealpha 发表于 半小时前

robbiealpha 17#

半小时前

感谢分享!
回复 支持 反对

使用道具 举报

   发表回复

您需要登录后才可以回帖 登录 | 立即注册

返回列表 本版积分规则

  • 在线客服

  • 返回顶部