微博 微信

Hao4K影音

电影频道
电影封面:
片  名: 游戏之夜4K
电影分类: 剧情 悬疑 喜剧 
国  家: 美国 
年  代: 2018年
分 辨 率: 4K(3840x2160)
电影格式: MKV|REMUX 
画质标准: SDR 
音质编码: DTS-HD Master Audio 
电影声道: 5.1声道 
帧数/FPS: 23.976 FPS
电影语言: 英文原版 
资源大小: 13.47 GB
导  演: 约翰·弗朗西斯·戴利 / 乔纳森·M·戈尔茨坦
豆瓣评分: 7.1 分
中文字幕: -
剧情简介: 马克思(贝特曼饰)的兄弟布鲁克斯(钱德勒饰)筹划“谋杀”派对后却遭绑架,马克思、安妮(麦克亚当斯饰)以为这只是一场游戏,但显然他们已陷入困境。
游戏夜杀必死(台) / 今晚玩救你(港)/游戏之夜4K.Game.Night.2018.2160p.WEB-DL.x265.8bit.SDR.DTS-HD.MA.5.1-4k电影信息
  1. Video
  2. ID : 1
  3. Format : HEVC
  4. Format/Info : High Efficiency Video Coding
  5. Format profile : Main@L5@Main
  6. Codec ID : V_MPEGH/ISO/HEVC
  7. Duration : 1 h 40 min
  8. Bit rate : 15.0 Mb/s
  9. Width : 3 840 pixels
  10. Height : 2 160 pixels
  11. Display aspect ratio : 16:9
  12. Frame rate mode : Constant
  13. Frame rate : 23.976 (24000/1001) FPS
  14. Original frame rate : 23.976 (23976/1000) FPS
  15. Color space : YUV
  16. Chroma subsampling : 4:2:0
  17. Bit depth : 8 bits
  18. Bits/(Pixel*Frame) : 0.076
  19. Stream size : 10.5 GiB (78%)
  20. Writing library : x265 2.7+14-d7c26df32fae:[Linux][GCC 4.8.5][64 bit][noasm] 8bit
  21. Encoding settings : cpuid=0 / frame-threads=6 / wpp / no-pmode / no-pme / no-psnr / no-ssim / log-level=2 / input-csp=1 / input-res=3840x2160 / interlace=0 / total-frames=0 / level-idc=0 / high-tier=1 / uhd-bd=0 / ref=3 / no-allow-non-conformance / no-repeat-headers / annexb / no-aud / no-hrd / info / hash=0 / no-temporal-layers / no-open-gop / min-keyint=4 / keyint=48 / gop-lookahead=0 / bframes=4 / b-adapt=2 / b-pyramid / bframe-bias=0 / rc-lookahead=80 / lookahead-slices=4 / scenecut=0 / radl=0 / no-intra-refresh / ctu=64 / min-cu-size=8 / rect / no-amp / max-tu-size=32 / tu-inter-depth=1 / tu-intra-depth=1 / limit-tu=0 / rdoq-level=2 / dynamic-rd=0.00 / no-ssim-rd / signhide / no-tskip / nr-intra=0 / nr-inter=0 / no-constrained-intra / strong-intra-smoothing / max-merge=3 / limit-refs=3 / limit-modes / me=2 / subme=3 / merange=64 / temporal-mvp / weightp / no-weightb / no-analyze-src-pics / deblock=0:0 / no-sao / no-sao-non-deblock / rd=4 / no-early-skip / no-rskip / no-fast-intra / no-tskip-fast / no-cu-lossless / no-b-intra / no-splitrd-skip / rdpenalty=0 / psy-rd=4.00 / psy-rdoq=10.00 / no-rd-refine / no-lossless / cbqpoffs=0 / crqpoffs=0 / rc=abr / bitrate=15000 / qcomp=0.60 / qpstep=1 / stats-write=0 / stats-read=0 / vbv-maxrate=22500 / vbv-bufsize=22500 / vbv-init=0.9 / ipratio=1.10 / pbratio=1.00 / aq-mode=0 / aq-strength=0.00 / no-cutree / zone-count=0 / no-strict-cbr / qg-size=32 / rc-grain / qpmax=69 / qpmin=0 / const-vbv / sar=1 / overscan=0 / videoformat=5 / range=0 / colorprim=1 / transfer=1 / colormatrix=1 / chromaloc=0 / display-window=0 / max-cll=0,0 / min-luma=0 / max-luma=255 / log2-max-poc-lsb=8 / vui-timing-info / vui-hrd-info / slices=1 / no-opt-qp-pps / no-opt-ref-list-length-pps / no-multi-pass-opt-rps / scenecut-bias=0.05 / no-opt-cu-delta-qp / no-aq-motion / no-hdr / no-hdr-opt / no-dhdr10-opt / no-idr-recovery-sei / analysis-reuse-level=5 / scale-factor=0 / refine-intra=0 / refine-inter=0 / refine-mv=0 / no-limit-sao / ctu-info=0 / no-lowpass-dct / refine-mv-type=0 / copy-pic=1 / max-ausize-factor=1.0 / no-dynamic-refine
  22. Default : Yes
  23. Forced : No
  24. Color range : Limited
  25. Color primaries : BT.709
  26. Transfer characteristics : BT.709
  27. Matrix coefficients : BT.709

  28. Audio #1
  29. ID : 2
  30. Format : DTS XLL
  31. Format/Info : Digital Theater Systems
  32. Commercial name : DTS-HD Master Audio
  33. Codec ID : A_DTS
  34. Duration : 1 h 40 min
  35. Bit rate mode : Variable
  36. Bit rate : 3 596 kb/s
  37. Channel(s) : 6 channels
  38. Channel layout : C L R Ls Rs LFE
  39. Sampling rate : 48.0 kHz
  40. Frame rate : 93.750 FPS (512 SPF)
  41. Bit depth : 24 bits
  42. Compression mode : Lossless
  43. Delay relative to video : 1 ms
  44. Stream size : 2.51 GiB (19%)
  45. Title : DTS-HD MA 5.1
  46. Language : English
  47. Default : Yes
  48. Forced : No

  49. Audio #2
  50. ID : 3
  51. Format : AC-3
  52. Format/Info : Audio Coding 3
  53. Commercial name : Dolby Digital
  54. Codec ID : A_AC3
  55. Duration : 1 h 40 min
  56. Bit rate mode : Constant
  57. Bit rate : 640 kb/s
  58. Channel(s) : 6 channels
  59. Channel layout : L R C LFE Ls Rs
  60. Sampling rate : 48.0 kHz
  61. Frame rate : 31.250 FPS (1536 SPF)
  62. Compression mode : Lossy
  63. Stream size : 458 MiB (3%)
  64. Title : DD 5.1
  65. Language : English
  66. Service kind : Complete Main
  67. Default : No
  68. Forced : No

  69. Text
  70. ID : 4
  71. Format : UTF-8
  72. Codec ID : S_TEXT/UTF8
  73. Codec ID/Info : UTF-8 Plain Text
  74. Duration : 1 h 39 min
  75. Bit rate : 99 b/s
  76. Count of elements : 2206
  77. Stream size : 72.1 KiB (0%)
  78. Title : English-SRT
  79. Language : English
  80. Default : Yes
  81. Forced : No

  82. Menu
  83. 00:00:00.000 : en:Chapter 01
  84. 00:10:33.675 : en:Chapter 02
  85. 00:18:35.698 : en:Chapter 03
  86. 00:32:23.442 : en:Chapter 04
  87. 00:42:38.890 : en:Chapter 05
  88. 00:52:25.935 : en:Chapter 06
  89. 01:01:59.883 : en:Chapter 07
  90. 01:11:49.514 : en:Chapter 08
  91. 01:22:35.325 : en:Chapter 09
  92. 01:32:53.485 : en:Chapter 10
复制代码

游戏夜杀必死(台) / 今晚玩救你(港)/游戏之夜4K.Game.Night.2018.2160p.WEB-DL.x265.8bit.SDR.DTS-HD.MA.5.1-4K电影下载
游戏之夜4K.Game.Night.2018.2160p.WEB-DL.x265.8bit.SDR.DTS-HD.MA.5.1【4K SDR 13.47 GB】
[Hao4K]游戏之夜4K.Game.Night.2018.2160p.WEB-DL.x265.8bit.SDR.DTS-HD.MA.5.1-SWTYBLZ.torrent (67.91 KB)
回复

使用道具 举报

全部回复24

mzdbwyj 发表于 4 天前

mzdbwyj 沙发

4 天前

感谢分享,但没有资源!
回复 支持 反对

使用道具 举报

sll6823879 发表于 4 天前

sll6823879 板凳

4 天前

感谢分享~!
回复 支持 反对

使用道具 举报

andywjhh 发表于 4 天前

andywjhh 地板

4 天前

感谢分享~!
回复 支持 反对

使用道具 举报

ggang 发表于 4 天前

ggang 5#

4 天前

谢楼主分享
回复 支持 反对

使用道具 举报

scp-173 发表于 4 天前

scp-173 6#

4 天前

感谢分享
回复 支持 反对

使用道具 举报

ksbdanlums 发表于 4 天前 Hao4K手机版

ksbdanlums 7#

4 天前

感谢分享!!
回复 支持 反对

使用道具 举报

yale 发表于 4 天前

yale 8#

4 天前

谢谢分享
回复 支持 反对

使用道具 举报

dyczw 发表于 4 天前

dyczw 9#

4 天前

感谢分享,辛苦了
回复 支持 反对

使用道具 举报

13305520371 发表于 4 天前

13305520371 10#

4 天前

游戏之夜4K好好
回复 支持 反对

使用道具 举报

zhouxxx246 发表于 4 天前

zhouxxx246 11#

4 天前

感谢分享~!
回复 支持 反对

使用道具 举报

jotiger 发表于 4 天前

jotiger 12#

4 天前

近期喜剧佳作,终于有了好资源,支持楼主
回复 支持 反对

使用道具 举报

赶去厕所 发表于 4 天前 Hao4K手机版

赶去厕所 13#

4 天前

感谢楼主的分享,谢谢了
回复 支持 反对

使用道具 举报

popyanyang 发表于 4 天前

popyanyang 14#

4 天前

这个男主是良医里的梅医生吗
回复 支持 反对

使用道具 举报

51959522 发表于 4 天前

51959522 15#

4 天前

感谢分享
回复 支持 反对

使用道具 举报

nll_111 发表于 3 天前

nll_111 16#

3 天前

感谢分享
回复 支持 反对

使用道具 举报

bbgrnnji 发表于 3 天前

bbgrnnji 17#

3 天前

最近算是比较好的片子了
回复 支持 反对

使用道具 举报

guilty45 发表于 3 天前

guilty45 18#

3 天前

据说这部电影蛮不错的,回去下了看看!谢谢楼主
回复 支持 反对

使用道具 举报

   发表回复

您需要登录后才可以回帖 登录 | 立即注册

返回列表 本版积分规则

  • 在线客服

  • 返回顶部