微博 微信

Hao4K影音

电影频道
电影封面:
片  名: 宠儿
电影分类: 剧情 喜剧 传记 
国  家: 美国 
年  代: 2018年
分 辨 率: 4K(3840x2160)
电影格式: MKV|REMUX 
画质标准: SDR 
音质编码: DTS-HD Master Audio 
电影声道: 5.1声道 
帧数/FPS: 23.976 FPS
电影语言: 英文原版 
资源大小: 22.84 GB
导  演: 欧格斯·兰斯莫斯
豆瓣评分: 7.5 分
中文字幕: /thread-54488-1-1.html
剧情简介: 故事发生在十八世纪早期的英格兰,安妮(奥莉薇娅·柯尔曼 Olivia Colman 饰)是大不列颠王国的女王,她和自己的青梅竹马莎拉公爵夫人(蕾切尔·薇兹 Rachel Weisz 饰)一直保持着秘密的情人关系。阿比盖尔(艾玛·斯通 Emma Stone 饰)是莎拉的远方亲戚,一直渴望融入以皇室为代表的上流社会,她来到了莎拉身边,想要谋得一份职务,哪知道莎拉对她十分冷淡。
  凭借着自己的聪慧和计谋,阿比盖尔吸引了安妮女王的注意,得以在她的身边侍奉。很快,阿比盖尔便得知了安妮女王和莎拉之间的“小秘密”,对权谋充满了欲望的阿比盖尔开始希望自己能够取代莎拉的位置,得到女王的宠幸。
争宠(港) / 真宠(台) / 宠姬 / 挚爱/宠儿4K.The.Favourite.2018.2160p.WEB-DL.x265.8bit.SDR.DTS-HD.MA.5.1-4k电影信息
  1. Video
  2. ID : 1
  3. Format : HEVC
  4. Format/Info : High Efficiency Video Coding
  5. Format profile : Main@L5.1@Main
  6. Codec ID : V_MPEGH/ISO/HEVC
  7. Duration : 1 h 59 min
  8. Bit rate : 23.3 Mb/s
  9. Width : 3 840 pixels
  10. Height : 2 160 pixels
  11. Display aspect ratio : 16:9
  12. Frame rate mode : Constant
  13. Frame rate : 23.976 (24000/1001) FPS
  14. Color space : YUV
  15. Chroma subsampling : 4:2:0
  16. Bit depth : 8 bits
  17. Bits/(Pixel*Frame) : 0.117
  18. Stream size : 19.4 GiB (85%)
  19. Default : Yes
  20. Forced : No
  21. Color range : Limited
  22. Color primaries : BT.709
  23. Transfer characteristics : BT.709
  24. Matrix coefficients : BT.709

  25. Audio #1
  26. ID : 2
  27. Format : DTS XLL
  28. Format/Info : Digital Theater Systems
  29. Commercial name : DTS-HD Master Audio
  30. Codec ID : A_DTS
  31. Duration : 1 h 59 min
  32. Bit rate mode : Variable
  33. Bit rate : 3 352 kb/s
  34. Channel(s) : 6 channels
  35. Channel layout : C L R Ls Rs LFE
  36. Sampling rate : 48.0 kHz
  37. Frame rate : 93.750 FPS (512 SPF)
  38. Bit depth : 24 bits
  39. Compression mode : Lossless
  40. Delay relative to video : 1 s 1 ms
  41. Stream size : 2.80 GiB (12%)
  42. Title : DTS-HD MA 5.1
  43. Language : English
  44. Default : Yes
  45. Forced : No

  46. Audio #2
  47. ID : 3
  48. Format : AC-3
  49. Format/Info : Audio Coding 3
  50. Commercial name : Dolby Digital
  51. Codec ID : A_AC3
  52. Duration : 1 h 59 min
  53. Bit rate mode : Constant
  54. Bit rate : 640 kb/s
  55. Channel(s) : 6 channels
  56. Channel layout : L R C LFE Ls Rs
  57. Sampling rate : 48.0 kHz
  58. Frame rate : 31.250 FPS (1536 SPF)
  59. Compression mode : Lossy
  60. Stream size : 547 MiB (2%)
  61. Title : DD 5.1
  62. Language : English
  63. Service kind : Complete Main
  64. Default : No
  65. Forced : No

  66. Text #1
  67. ID : 4
  68. Format : UTF-8
  69. Codec ID : S_TEXT/UTF8
  70. Codec ID/Info : UTF-8 Plain Text
  71. Duration : 1 h 49 min
  72. Bit rate : 52 b/s
  73. Count of elements : 1341
  74. Stream size : 41.8 KiB (0%)
  75. Title : English-SRT
  76. Language : English
  77. Default : Yes
  78. Forced : No

  79. Text #2
  80. ID : 5
  81. Format : PGS
  82. Muxing mode : zlib
  83. Codec ID : S_HDMV/PGS
  84. Codec ID/Info : Picture based subtitle format used on BDs/HD-DVDs
  85. Duration : 1 h 57 min
  86. Bit rate : 36.0 kb/s
  87. Count of elements : 2632
  88. Stream size : 30.3 MiB (0%)
  89. Title : French-PGS
  90. Language : French
  91. Default : No
  92. Forced : No

  93. Text #3
  94. ID : 6
  95. Format : PGS
  96. Muxing mode : zlib
  97. Codec ID : S_HDMV/PGS
  98. Codec ID/Info : Picture based subtitle format used on BDs/HD-DVDs
  99. Duration : 1 h 57 min
  100. Bit rate : 33.5 kb/s
  101. Count of elements : 2630
  102. Stream size : 28.2 MiB (0%)
  103. Title : Spanish-PGS
  104. Language : Spanish
  105. Default : No
  106. Forced : No

  107. Menu
  108. 00:00:01.001 : en:This Mud Stinks
  109. 00:18:37.491 : en:I Do Fear Confusion and Accidents
  110. 00:40:36.475 : en:What an Outfit
  111. 00:46:45.385 : en:A Minor Hitch
  112. 01:06:24.188 : en:What If I Should Fall Asleep and Slip Under?
  113. 01:15:13.217 : en:Stop Infection
  114. 01:28:33.683 : en:Leave That I Like It
  115. 01:36:56.769 : en:I Dreamt I Stabbed You In the Eye
复制代码

争宠(港) / 真宠(台) / 宠姬 / 挚爱/宠儿4K.The.Favourite.2018.2160p.WEB-DL.x265.8bit.SDR.DTS-HD.MA.5.1-4K电影下载

宠儿4K.The.Favourite.2018.2160p.WEB-DL.x265.8bit.SDR.DTS-HD.MA.5.1【4K SDR  22. 84 GB】
[Hao4K]宠儿4K.The.Favourite.2018.2160p.WEB-DL.x265.8bit.SDR.DTS-HD.MA.5.1-SWTYBLZ.torrent (57.59 KB)
回复

使用道具 举报

全部回复25

yangly 发表于 前天 10:43

yangly 沙发

前天 10:43

感谢楼主分享
回复 支持 反对

使用道具 举报

ARFEI 发表于 前天 10:45

ARFEI 板凳

前天 10:45

看起来挺有意思的,多谢分享。
回复 支持 反对

使用道具 举报

崔德江ASDFG 发表于 前天 11:57

崔德江ASDFG 地板

前天 11:57

感谢楼主分享
回复 支持 反对

使用道具 举报

崔德江ASDFG 发表于 前天 11:58

崔德江ASDFG 5#

前天 11:58

感谢楼主分享
回复 支持 反对

使用道具 举报

alanli 发表于 前天 14:11 Hao4K手机版

alanli 6#

前天 14:11

非常感谢lz的分享。
回复 支持 反对

使用道具 举报

scp-173 发表于 前天 14:18

scp-173 7#

前天 14:18

感谢分享
回复 支持 反对

使用道具 举报

andywjhh 发表于 前天 14:21

andywjhh 8#

前天 14:21

感谢分享~!
回复 支持 反对

使用道具 举报

daikun008 发表于 前天 14:46

daikun008 9#

前天 14:46

谢谢分享
回复 支持 反对

使用道具 举报

yale 发表于 前天 15:50

yale 10#

前天 15:50

谢谢分享
回复 支持 反对

使用道具 举报

dyczw 发表于 前天 16:19

dyczw 11#

前天 16:19

感谢分享,辛苦了
回复 支持 反对

使用道具 举报

13305520371 发表于 前天 16:31

13305520371 12#

前天 16:31


谢谢分享
回复 支持 反对

使用道具 举报

ykych 发表于 前天 16:59

ykych 13#

前天 16:59

谢谢分享
回复 支持 反对

使用道具 举报

zengzzs 发表于 前天 18:29

zengzzs 14#

前天 18:29

支持了,感谢分享
回复 支持 反对

使用道具 举报

xiaogangpao 发表于 前天 19:39

xiaogangpao 15#

前天 19:39

好东西顶一下


回复 支持 反对

使用道具 举报

lqy0500 发表于 前天 22:18

lqy0500 16#

前天 22:18

谢谢 楼主好人
回复 支持 反对

使用道具 举报

dk30129 发表于 昨天 08:16

dk30129 17#

昨天 08:16

感谢楼主分享!!!
回复 支持 反对

使用道具 举报

nll_111 发表于 昨天 08:32

nll_111 18#

昨天 08:32

感谢分享
回复 支持 反对

使用道具 举报

   发表回复

您需要登录后才可以回帖 登录 | 立即注册

返回列表 本版积分规则

  • 在线客服

  • 返回顶部