微博 微信

Hao4K影音

[美剧] 博斯 第三季4k Bosch.S03.2160p.美剧下载

2021-2-28 10:24:15 5939 1 |只看大图 回帖奖励 |倒序浏览 |阅读模式

大红色 楼主

2021-2-23 17:42:55

电视剧频道
电视剧封面:
电视剧名: 博斯 第三季4k
年  代: 2017  
国  家: 美国
类  别: 犯罪 剧情 
语  言: 英语
字  幕: -
上映日期: 2017-04-21
文件格式: mkv    
视频效果: 4K(3840x2160)    
资源大小: 51.05 GB
片  长: 50 分钟
导  演: 麦可·康纳利 / 埃里克·艾利斯·奥弗迈耶 Eric Ellis Overmyer
剧情简介:  Harry Bosch终于得知母亲遇害案背后的真相,可怕的事实让他出离愤怒。在百孔千疮的司法系统中,他要如何寻求正义?如何保持自己的正直和诚实?本季Bosch将调查一名无家可归的退伍老兵的谋杀案、一个连环谋杀案嫌疑人的自杀案和一个好莱坞导演的高调谋杀审判。在此过程中,Bosch将面对各种各样冷血无情的对手,他们只有一个共同目标——彻底毁掉他。Jeffrey Pierce将扮演性格脆弱的Trevor Dobbs,虽然他已经离开了军队,但军队却没有离开他。他曾在一支组织严密的特种部队中担任中尉军官,远赴伊拉克的安瓦尔省执行任务。Christopher Backus扮演前特种部队士兵Woody Woodrell,如今在一家私人保安公司工作。Linda Park扮演小学老师Jun Park,她还是「市长危机应对小组」的一名成员。该小组是洛杉矶独有的一个组织,一批志愿者接受专门训练后将协助洛杉矶警署处理自杀和谋杀现场的紧急情况。他们的主要工作包括安抚死者家属的情绪,代表警方与这些家属进行沟通,在家属、警方、法医和其他相关机构之间进行协调。Arnold Vosloo扮演前警察Rafael “Rudy” Tafero,如今是Andre Holland的保安主管。他和Bosch形同水火,甚至会在一起案件中制造假证据来陷害Bosch。
博世/博斯 第三季4k Bosch.S03.2160p.AMZN.WEB-DL.x265.10bit.HDR10plus.DDP5.1.美剧信息
  1. Video
  2. ID : 1
  3. Format : HEVC
  4. Format/Info : High Efficiency Video Coding
  5. Format profile : Main 10@L5@Main
  6. HDR format : SMPTE ST 2094 App 4, Version 1, HDR10+ Profile B compatible
  7. Codec ID : V_MPEGH/ISO/HEVC
  8. Duration : 52 min 51 s
  9. Bit rate : 14.6 Mb/s
  10. Width : 3 840 pixels
  11. Height : 2 160 pixels
  12. Display aspect ratio : 16:9
  13. Frame rate mode : Constant
  14. Frame rate : 23.976 (24000/1001) FPS
  15. Color space : YUV
  16. Chroma subsampling : 4:2:0
  17. Bit depth : 10 bits
  18. Bits/(Pixel*Frame) : 0.074
  19. Stream size : 5.40 GiB (96%)
  20. Default : Yes
  21. Forced : No
  22. Color range : Limited
  23. Color primaries : BT.2020
  24. Transfer characteristics : PQ
  25. Matrix coefficients : BT.2020 non-constant
  26. Mastering display color primaries : Display P3
  27. Mastering display luminance : min: 0.0001 cd/m2, max: 1000 cd/m2
  28. Maximum Content Light Level : 575 cd/m2
  29. Maximum Frame-Average Light Level : 72 cd/m2

  30. Audio
  31. ID : 2
  32. Format : E-AC-3
  33. Format/Info : Enhanced AC-3
  34. Commercial name : Dolby Digital Plus
  35. Codec ID : A_EAC3
  36. Duration : 52 min 51 s
  37. Bit rate mode : Constant
  38. Bit rate : 640 kb/s
  39. Channel(s) : 6 channels
  40. Channel layout : L R C LFE Ls Rs
  41. Sampling rate : 48.0 kHz
  42. Frame rate : 31.250 FPS (1536 SPF)
  43. Compression mode : Lossy
  44. Stream size : 242 MiB (4%)
  45. Title : English
  46. Language : English
  47. Service kind : Complete Main
  48. Default : No
  49. Forced : No

  50. Text #1
  51. ID : 3
  52. Format : UTF-8
  53. Codec ID : S_TEXT/UTF8
  54. Codec ID/Info : UTF-8 Plain Text
  55. Duration : 49 min 16 s
  56. Bit rate : 87 b/s
  57. Count of elements : 582
  58. Stream size : 31.4 KiB (0%)
  59. Title : Russian
  60. Language : Russian
  61. Default : No
  62. Forced : No

  63. Text #2
  64. ID : 4
  65. Format : UTF-8
  66. Codec ID : S_TEXT/UTF8
  67. Codec ID/Info : UTF-8 Plain Text
  68. Duration : 49 min 16 s
  69. Bit rate : 49 b/s
  70. Count of elements : 569
  71. Stream size : 18.0 KiB (0%)
  72. Title : Polish
  73. Language : Polish
  74. Default : No
  75. Forced : No

  76. Text #3
  77. ID : 5
  78. Format : UTF-8
  79. Codec ID : S_TEXT/UTF8
  80. Codec ID/Info : UTF-8 Plain Text
  81. Duration : 49 min 16 s
  82. Bit rate : 51 b/s
  83. Count of elements : 583
  84. Stream size : 18.4 KiB (0%)
  85. Title : Chinese (Simplified)
  86. Language : Chinese
  87. Default : No
  88. Forced : No

  89. Text #4
  90. ID : 6
  91. Format : UTF-8
  92. Codec ID : S_TEXT/UTF8
  93. Codec ID/Info : UTF-8 Plain Text
  94. Duration : 49 min 16 s
  95. Bit rate : 54 b/s
  96. Count of elements : 486
  97. Stream size : 19.7 KiB (0%)
  98. Title : German
  99. Language : German
  100. Default : No
  101. Forced : No

  102. Text #5
  103. ID : 7
  104. Format : UTF-8
  105. Codec ID : S_TEXT/UTF8
  106. Codec ID/Info : UTF-8 Plain Text
  107. Duration : 51 min 18 s
  108. Bit rate : 43 b/s
  109. Count of elements : 579
  110. Stream size : 16.5 KiB (0%)
  111. Title : Malay
  112. Language : Malay
  113. Default : No
  114. Forced : No

  115. Text #6
  116. ID : 8
  117. Format : UTF-8
  118. Codec ID : S_TEXT/UTF8
  119. Codec ID/Info : UTF-8 Plain Text
  120. Duration : 51 min 18 s
  121. Bit rate : 41 b/s
  122. Count of elements : 554
  123. Stream size : 15.6 KiB (0%)
  124. Title : Filipino
  125. Language : fil
  126. Default : No
  127. Forced : No

  128. Text #7
  129. ID : 9
  130. Format : UTF-8
  131. Codec ID : S_TEXT/UTF8
  132. Codec ID/Info : UTF-8 Plain Text
  133. Duration : 49 min 16 s
  134. Bit rate : 50 b/s
  135. Count of elements : 579
  136. Stream size : 18.4 KiB (0%)
  137. Title : Indonesian
  138. Language : Indonesian
  139. Default : No
  140. Forced : No

  141. Text #8
  142. ID : 10
  143. Format : UTF-8
  144. Codec ID : S_TEXT/UTF8
  145. Codec ID/Info : UTF-8 Plain Text
  146. Duration : 49 min 16 s
  147. Bit rate : 50 b/s
  148. Count of elements : 578
  149. Stream size : 18.1 KiB (0%)
  150. Title : Castilian
  151. Language : Spanish
  152. Default : No
  153. Forced : No

  154. Text #9
  155. ID : 11
  156. Format : UTF-8
  157. Codec ID : S_TEXT/UTF8
  158. Codec ID/Info : UTF-8 Plain Text
  159. Duration : 49 min 16 s
  160. Bit rate : 40 b/s
  161. Count of elements : 539
  162. Stream size : 14.8 KiB (0%)
  163. Title : Japanese
  164. Language : Japanese
  165. Default : No
  166. Forced : No

  167. Text #10
  168. ID : 12
  169. Format : UTF-8
  170. Codec ID : S_TEXT/UTF8
  171. Codec ID/Info : UTF-8 Plain Text
  172. Duration : 49 min 16 s
  173. Bit rate : 51 b/s
  174. Count of elements : 578
  175. Stream size : 18.6 KiB (0%)
  176. Title : French
  177. Language : French
  178. Default : No
  179. Forced : No

  180. Text #11
  181. ID : 13
  182. Format : UTF-8
  183. Codec ID : S_TEXT/UTF8
  184. Codec ID/Info : UTF-8 Plain Text
  185. Duration : 49 min 16 s
  186. Bit rate : 50 b/s
  187. Count of elements : 580
  188. Stream size : 18.4 KiB (0%)
  189. Title : Italian
  190. Language : Italian
  191. Default : No
  192. Forced : No

  193. Text #12
  194. ID : 14
  195. Format : UTF-8
  196. Codec ID : S_TEXT/UTF8
  197. Codec ID/Info : UTF-8 Plain Text
  198. Duration : 49 min 16 s
  199. Bit rate : 49 b/s
  200. Count of elements : 573
  201. Stream size : 17.8 KiB (0%)
  202. Title : Spanish
  203. Language : Spanish
  204. Default : No
  205. Forced : No

  206. Text #13
  207. ID : 15
  208. Format : UTF-8
  209. Codec ID : S_TEXT/UTF8
  210. Codec ID/Info : UTF-8 Plain Text
  211. Duration : 51 min 18 s
  212. Bit rate : 47 b/s
  213. Count of elements : 589
  214. Stream size : 17.7 KiB (0%)
  215. Title : Portuguese
  216. Language : Portuguese
  217. Default : No
  218. Forced : No

  219. Text #14
  220. ID : 16
  221. Format : UTF-8
  222. Codec ID : S_TEXT/UTF8
  223. Codec ID/Info : UTF-8 Plain Text
  224. Duration : 49 min 16 s
  225. Bit rate : 144 b/s
  226. Count of elements : 584
  227. Stream size : 52.3 KiB (0%)
  228. Title : Thai
  229. Language : Thai
  230. Default : No
  231. Forced : No

  232. Text #15
  233. ID : 17
  234. Format : UTF-8
  235. Codec ID : S_TEXT/UTF8
  236. Codec ID/Info : UTF-8 Plain Text
  237. Duration : 49 min 16 s
  238. Bit rate : 46 b/s
  239. Count of elements : 566
  240. Stream size : 16.9 KiB (0%)
  241. Title : Dutch
  242. Language : Dutch
  243. Default : No
  244. Forced : No

  245. Text #16
  246. ID : 18
  247. Format : UTF-8
  248. Codec ID : S_TEXT/UTF8
  249. Codec ID/Info : UTF-8 Plain Text
  250. Duration : 49 min 16 s
  251. Bit rate : 53 b/s
  252. Count of elements : 575
  253. Stream size : 19.2 KiB (0%)
  254. Title : Brazilian Portuguese
  255. Language : Portuguese
  256. Default : No
  257. Forced : No

  258. Text #17
  259. ID : 19
  260. Format : UTF-8
  261. Codec ID : S_TEXT/UTF8
  262. Codec ID/Info : UTF-8 Plain Text
  263. Duration : 49 min 16 s
  264. Bit rate : 87 b/s
  265. Count of elements : 583
  266. Stream size : 31.5 KiB (0%)
  267. Title : Arabic
  268. Language : Arabic
  269. Default : No
  270. Forced : No

  271. Text #18
  272. ID : 20
  273. Format : UTF-8
  274. Codec ID : S_TEXT/UTF8
  275. Codec ID/Info : UTF-8 Plain Text
  276. Duration : 49 min 16 s
  277. Bit rate : 53 b/s
  278. Count of elements : 576
  279. Stream size : 19.2 KiB (0%)
  280. Title : Swedish
  281. Language : Swedish
  282. Default : No
  283. Forced : No

  284. Text #19
  285. ID : 21
  286. Format : UTF-8
  287. Codec ID : S_TEXT/UTF8
  288. Codec ID/Info : UTF-8 Plain Text
  289. Duration : 49 min 16 s
  290. Bit rate : 55 b/s
  291. Count of elements : 582
  292. Stream size : 20.0 KiB (0%)
  293. Title : Danish
  294. Language : Danish
  295. Default : No
  296. Forced : No

  297. Text #20
  298. ID : 22
  299. Format : UTF-8
  300. Codec ID : S_TEXT/UTF8
  301. Codec ID/Info : UTF-8 Plain Text
  302. Duration : 49 min 16 s
  303. Bit rate : 54 b/s
  304. Count of elements : 579
  305. Stream size : 19.5 KiB (0%)
  306. Title : Turkish
  307. Language : Turkish
  308. Default : No
  309. Forced : No

  310. Text #21
  311. ID : 23
  312. Format : UTF-8
  313. Codec ID : S_TEXT/UTF8
  314. Codec ID/Info : UTF-8 Plain Text
  315. Duration : 49 min 16 s
  316. Bit rate : 171 b/s
  317. Count of elements : 645
  318. Stream size : 61.9 KiB (0%)
  319. Title : Tamil
  320. Language : Tamil
  321. Default : No
  322. Forced : No

  323. Text #22
  324. ID : 24
  325. Format : UTF-8
  326. Codec ID : S_TEXT/UTF8
  327. Codec ID/Info : UTF-8 Plain Text
  328. Duration : 49 min 16 s
  329. Bit rate : 54 b/s
  330. Count of elements : 580
  331. Stream size : 19.7 KiB (0%)
  332. Title : Norwegian (Bokmål)
  333. Language : Norwegian Bokmal
  334. Default : No
  335. Forced : No

  336. Text #23
  337. ID : 25
  338. Format : UTF-8
  339. Codec ID : S_TEXT/UTF8
  340. Codec ID/Info : UTF-8 Plain Text
  341. Duration : 49 min 16 s
  342. Bit rate : 51 b/s
  343. Count of elements : 579
  344. Stream size : 18.7 KiB (0%)
  345. Title : Finnish
  346. Language : Finnish
  347. Default : No
  348. Forced : No

  349. Text #24
  350. ID : 26
  351. Format : UTF-8
  352. Codec ID : S_TEXT/UTF8
  353. Codec ID/Info : UTF-8 Plain Text
  354. Duration : 49 min 57 s
  355. Bit rate : 55 b/s
  356. Count of elements : 744
  357. Stream size : 20.2 KiB (0%)
  358. Title : English [SDH]
  359. Language : English
  360. Default : No
  361. Forced : No

  362. Text #25
  363. ID : 27
  364. Format : UTF-8
  365. Codec ID : S_TEXT/UTF8
  366. Codec ID/Info : UTF-8 Plain Text
  367. Duration : 49 min 16 s
  368. Bit rate : 128 b/s
  369. Count of elements : 582
  370. Stream size : 46.2 KiB (0%)
  371. Title : Hindi
  372. Language : Hindi
  373. Default : No
  374. Forced : No

  375. Text #26
  376. ID : 28
  377. Format : UTF-8
  378. Codec ID : S_TEXT/UTF8
  379. Codec ID/Info : UTF-8 Plain Text
  380. Duration : 49 min 16 s
  381. Bit rate : 50 b/s
  382. Count of elements : 583
  383. Stream size : 18.1 KiB (0%)
  384. Title : Chinese (Traditional)
  385. Language : Chinese
  386. Default : No
  387. Forced : No

  388. Text #27
  389. ID : 29
  390. Format : UTF-8
  391. Codec ID : S_TEXT/UTF8
  392. Codec ID/Info : UTF-8 Plain Text
  393. Duration : 49 min 16 s
  394. Bit rate : 63 b/s
  395. Count of elements : 585
  396. Stream size : 22.9 KiB (0%)
  397. Title : Korean
  398. Language : Korean
  399. Default : No
  400. Forced : No

  401. Text #28
  402. ID : 30
  403. Format : UTF-8
  404. Codec ID : S_TEXT/UTF8
  405. Codec ID/Info : UTF-8 Plain Text
  406. Duration : 49 min 16 s
  407. Bit rate : 75 b/s
  408. Count of elements : 584
  409. Stream size : 27.3 KiB (0%)
  410. Title : Hebrew
  411. Language : Hebrew
  412. Default : No
  413. Forced : No

  414. Text #29
  415. ID : 31
  416. Format : UTF-8
  417. Codec ID : S_TEXT/UTF8
  418. Codec ID/Info : UTF-8 Plain Text
  419. Duration : 49 min 16 s
  420. Bit rate : 151 b/s
  421. Count of elements : 585
  422. Stream size : 54.8 KiB (0%)
  423. Title : Telugu
  424. Language : Telugu
  425. Default : No
  426. Forced : No

  427. Text #30
  428. ID : 32
  429. Format : UTF-8
  430. Codec ID : S_TEXT/UTF8
  431. Codec ID/Info : UTF-8 Plain Text
  432. Duration : 49 min 16 s
  433. Bit rate : 54 b/s
  434. Count of elements : 723
  435. Stream size : 19.7 KiB (0%)
  436. Title : English
  437. Language : English
  438. Default : No
  439. Forced : No

  440. Menu
  441. 00:00:00.000 : en:Amazon Studios
  442. 00:00:05.000 : en:Bosch asks Andy to take him out on a boat
  443. 00:03:41.000 : en:Opening Credits
  444. 00:04:43.000 : en:Bosch nears the island
  445. 00:05:47.000 : en:A reporter tries to get a word with Jerry
  446. 00:06:45.000 : en:Bosch looks for incriminating evidence on the boat
  447. 00:11:15.000 : en:Jerry replays the interview recording
  448. 00:12:01.000 : en:Bosch sets a trap for Dobbs
  449. 00:15:21.000 : en:Bosch returns to an upset Maddie
  450. 00:18:45.000 : en:We need to talk
  451. 00:19:32.000 : en:Bosch receives an odd departing gift
  452. 00:22:48.000 : en:Bosch speaks to Dobbs about his fate
  453. 00:27:07.000 : en:Looking through old memories
  454. 00:29:10.000 : en:Had it all wrong
  455. 00:33:55.000 : en:Bosch comes to Irving with a proposition
  456. 00:35:46.000 : en:Jerry returns back home
  457. 00:37:22.000 : en:Eleanor asks to stay
  458. 00:38:21.000 : en:Bosch looks for evidence
  459. 00:41:25.000 : en:Bosch interrupts Irving and Jun\'s dinner
  460. 00:43:13.000 : en:The next morning
  461. 00:44:59.000 : en:Jerry confronts Bosch
  462. 00:49:32.000 : en:Walker gives a speech at Irving\'s pinning ceremony
  463. 00:51:15.000 : en:End Credits
复制代码

博世/博斯 第三季4k Bosch.S03.2160p.AMZN.WEB-DL.x265.10bit.HDR10plus.DDP5.1.美剧下载

博斯 第三季4k Bosch.S03.2160p.AMZN.WEB-DL.x265.10bit.HDR10plus.DDP5.1【51.05 GB】
[Hao4k]博斯 第三季4k Bosch.S03.2160p.AMZN.WEB-DL.x265.10bit.HDR10plus.DDP5.1-iKA.torrent (128.89 KB)
回复

使用道具 举报

全部回复1

HWyt 发表于 2021-2-28 10:24:15

HWyt 沙发

2021-2-28 10:24:15

谢谢分享,收藏先,找找字幕再下载
回复 支持 反对

使用道具 举报

   发表回复

您需要登录后才可以回帖 登录 | 立即注册

返回列表 本版积分规则

:
白银玩家
:
未填写

主题

帖子

积分1006

图文推荐

  • 99新3T硬盘带资源出售

    可烤满4K、1080P,豆瓣高分影片。 399元烤满

  • 出开博尔Q20PLUS+戴尔UP2718q hdr1000显示

    设备升级了,转让纯一手开博尔Q20PLUS 4K硬盘播放

  • 【已售】出售115永久皇冠VIP

    115网盘: 超大空间、高速传输、200G大文

  • 出99新的Xbox one X港服,只买了两个月寻有

    只买了两个月的Xbox one X港服,寻有缘人,拿回来

  • (已出,谢谢)出WD 8T紫盘,带6.6T资源。

    已出,谢谢关注! ======================

  • 在线客服

  • 返回顶部