微博 微信

Hao4K影音

[美剧] 博斯 第四季4k Bosch.S04.2160p.美剧下载

5 天前 4269 1 |只看大图 回帖奖励 |倒序浏览 |阅读模式

大红色 楼主

5 天前

电视剧频道
电视剧封面:
电视剧名: 博斯 第四季4k
年  代: 2018  
国  家: 美国
类  别: 犯罪 悬疑 
语  言: 英语
字  幕: 英文原版
上映日期: 2018-04-13
文件格式: mkv    
视频效果: 4K(3840x2160)    
资源大小: 49.28 GB
片  长: 45 分钟
导  演: 麦可·康纳利
剧情简介: 根据Michael Connelly畅销侦探小说系列改编,洛杉矶警探博斯(Titus Weilliver)在指控一名连环杀手的同时调查一个13岁男孩的谋杀案.
哈里·博斯 / 波什 / 博什 / 博世/博斯 第四季4k Bosch.S04.2160p.AMZN.WEB-DL.x265.10bit.HDR10plus.DDP5.1.美剧信息
  1. Video
  2. ID : 1
  3. Format : HEVC
  4. Format/Info : High Efficiency Video Coding
  5. Format profile : Main 10@L5@Main
  6. HDR format : SMPTE ST 2094 App 4, Version 1, HDR10+ Profile B compatible
  7. Codec ID : V_MPEGH/ISO/HEVC
  8. Duration : 52 min 39 s
  9. Bit rate : 14.6 Mb/s
  10. Width : 3 840 pixels
  11. Height : 2 160 pixels
  12. Display aspect ratio : 16:9
  13. Frame rate mode : Constant
  14. Frame rate : 23.976 (24000/1001) FPS
  15. Color space : YUV
  16. Chroma subsampling : 4:2:0
  17. Bit depth : 10 bits
  18. Bits/(Pixel*Frame) : 0.073
  19. Stream size : 5.37 GiB (96%)
  20. Default : Yes
  21. Forced : No
  22. Color range : Limited
  23. Color primaries : BT.2020
  24. Transfer characteristics : PQ
  25. Matrix coefficients : BT.2020 non-constant
  26. Mastering display color primaries : Display P3
  27. Mastering display luminance : min: 0.0001 cd/m2, max: 1000 cd/m2
  28. Maximum Content Light Level : 565 cd/m2
  29. Maximum Frame-Average Light Level : 73 cd/m2

  30. Audio
  31. ID : 2
  32. Format : E-AC-3
  33. Format/Info : Enhanced AC-3
  34. Commercial name : Dolby Digital Plus
  35. Codec ID : A_EAC3
  36. Duration : 52 min 39 s
  37. Bit rate mode : Constant
  38. Bit rate : 640 kb/s
  39. Channel(s) : 6 channels
  40. Channel layout : L R C LFE Ls Rs
  41. Sampling rate : 48.0 kHz
  42. Frame rate : 31.250 FPS (1536 SPF)
  43. Compression mode : Lossy
  44. Stream size : 241 MiB (4%)
  45. Title : English
  46. Language : English
  47. Service kind : Complete Main
  48. Default : No
  49. Forced : No

  50. Text #1
  51. ID : 3
  52. Format : UTF-8
  53. Codec ID : S_TEXT/UTF8
  54. Codec ID/Info : UTF-8 Plain Text
  55. Duration : 49 min 15 s
  56. Bit rate : 54 b/s
  57. Count of elements : 623
  58. Stream size : 19.7 KiB (0%)
  59. Title : French
  60. Language : French
  61. Default : No
  62. Forced : No

  63. Text #2
  64. ID : 4
  65. Format : UTF-8
  66. Codec ID : S_TEXT/UTF8
  67. Codec ID/Info : UTF-8 Plain Text
  68. Duration : 49 min 15 s
  69. Bit rate : 55 b/s
  70. Count of elements : 628
  71. Stream size : 20.2 KiB (0%)
  72. Title : Indonesian
  73. Language : Indonesian
  74. Default : No
  75. Forced : No

  76. Text #3
  77. ID : 5
  78. Format : UTF-8
  79. Codec ID : S_TEXT/UTF8
  80. Codec ID/Info : UTF-8 Plain Text
  81. Duration : 49 min 15 s
  82. Bit rate : 64 b/s
  83. Count of elements : 628
  84. Stream size : 23.3 KiB (0%)
  85. Title : Korean
  86. Language : Korean
  87. Default : No
  88. Forced : No

  89. Text #4
  90. ID : 6
  91. Format : UTF-8
  92. Codec ID : S_TEXT/UTF8
  93. Codec ID/Info : UTF-8 Plain Text
  94. Duration : 49 min 15 s
  95. Bit rate : 151 b/s
  96. Count of elements : 629
  97. Stream size : 54.5 KiB (0%)
  98. Title : Hindi
  99. Language : Hindi
  100. Default : No
  101. Forced : No

  102. Text #5
  103. ID : 7
  104. Format : UTF-8
  105. Codec ID : S_TEXT/UTF8
  106. Codec ID/Info : UTF-8 Plain Text
  107. Duration : 49 min 15 s
  108. Bit rate : 84 b/s
  109. Count of elements : 629
  110. Stream size : 30.3 KiB (0%)
  111. Title : Hebrew
  112. Language : Hebrew
  113. Default : No
  114. Forced : No

  115. Text #6
  116. ID : 8
  117. Format : UTF-8
  118. Codec ID : S_TEXT/UTF8
  119. Codec ID/Info : UTF-8 Plain Text
  120. Duration : 52 min 22 s
  121. Bit rate : 41 b/s
  122. Count of elements : 628
  123. Stream size : 15.7 KiB (0%)
  124. Title : Malay
  125. Language : Malay
  126. Default : No
  127. Forced : No

  128. Text #7
  129. ID : 9
  130. Format : UTF-8
  131. Codec ID : S_TEXT/UTF8
  132. Codec ID/Info : UTF-8 Plain Text
  133. Duration : 49 min 15 s
  134. Bit rate : 45 b/s
  135. Count of elements : 592
  136. Stream size : 16.3 KiB (0%)
  137. Title : Japanese
  138. Language : Japanese
  139. Default : No
  140. Forced : No

  141. Text #8
  142. ID : 10
  143. Format : UTF-8
  144. Codec ID : S_TEXT/UTF8
  145. Codec ID/Info : UTF-8 Plain Text
  146. Duration : 49 min 15 s
  147. Bit rate : 60 b/s
  148. Count of elements : 632
  149. Stream size : 21.9 KiB (0%)
  150. Title : Danish
  151. Language : Danish
  152. Default : No
  153. Forced : No

  154. Text #9
  155. ID : 11
  156. Format : UTF-8
  157. Codec ID : S_TEXT/UTF8
  158. Codec ID/Info : UTF-8 Plain Text
  159. Duration : 49 min 15 s
  160. Bit rate : 51 b/s
  161. Count of elements : 610
  162. Stream size : 18.5 KiB (0%)
  163. Title : Polish
  164. Language : Polish
  165. Default : No
  166. Forced : No

  167. Text #10
  168. ID : 12
  169. Format : UTF-8
  170. Codec ID : S_TEXT/UTF8
  171. Codec ID/Info : UTF-8 Plain Text
  172. Duration : 49 min 16 s
  173. Bit rate : 60 b/s
  174. Count of elements : 526
  175. Stream size : 21.9 KiB (0%)
  176. Title : German
  177. Language : German
  178. Default : No
  179. Forced : No

  180. Text #11
  181. ID : 13
  182. Format : UTF-8
  183. Codec ID : S_TEXT/UTF8
  184. Codec ID/Info : UTF-8 Plain Text
  185. Duration : 49 min 15 s
  186. Bit rate : 61 b/s
  187. Count of elements : 623
  188. Stream size : 22.3 KiB (0%)
  189. Title : Italian
  190. Language : Italian
  191. Default : No
  192. Forced : No

  193. Text #12
  194. ID : 14
  195. Format : UTF-8
  196. Codec ID : S_TEXT/UTF8
  197. Codec ID/Info : UTF-8 Plain Text
  198. Duration : 52 min 22 s
  199. Bit rate : 44 b/s
  200. Count of elements : 611
  201. Stream size : 17.1 KiB (0%)
  202. Title : Filipino
  203. Language : fil
  204. Default : No
  205. Forced : No

  206. Text #13
  207. ID : 15
  208. Format : UTF-8
  209. Codec ID : S_TEXT/UTF8
  210. Codec ID/Info : UTF-8 Plain Text
  211. Duration : 51 min 52 s
  212. Bit rate : 63 b/s
  213. Count of elements : 831
  214. Stream size : 24.1 KiB (0%)
  215. Title : English [SDH]
  216. Language : English
  217. Default : No
  218. Forced : No

  219. Text #14
  220. ID : 16
  221. Format : UTF-8
  222. Codec ID : S_TEXT/UTF8
  223. Codec ID/Info : UTF-8 Plain Text
  224. Duration : 49 min 15 s
  225. Bit rate : 93 b/s
  226. Count of elements : 638
  227. Stream size : 33.9 KiB (0%)
  228. Title : Arabic
  229. Language : Arabic
  230. Default : No
  231. Forced : No

  232. Text #15
  233. ID : 17
  234. Format : UTF-8
  235. Codec ID : S_TEXT/UTF8
  236. Codec ID/Info : UTF-8 Plain Text
  237. Duration : 52 min 22 s
  238. Bit rate : 47 b/s
  239. Count of elements : 635
  240. Stream size : 18.3 KiB (0%)
  241. Title : Portuguese
  242. Language : Portuguese
  243. Default : No
  244. Forced : No

  245. Text #16
  246. ID : 18
  247. Format : UTF-8
  248. Codec ID : S_TEXT/UTF8
  249. Codec ID/Info : UTF-8 Plain Text
  250. Duration : 49 min 15 s
  251. Bit rate : 56 b/s
  252. Count of elements : 625
  253. Stream size : 20.5 KiB (0%)
  254. Title : Turkish
  255. Language : Turkish
  256. Default : No
  257. Forced : No

  258. Text #17
  259. ID : 19
  260. Format : UTF-8
  261. Codec ID : S_TEXT/UTF8
  262. Codec ID/Info : UTF-8 Plain Text
  263. Duration : 49 min 15 s
  264. Bit rate : 59 b/s
  265. Count of elements : 629
  266. Stream size : 21.3 KiB (0%)
  267. Title : Chinese (Traditional)
  268. Language : Chinese
  269. Default : No
  270. Forced : No

  271. Text #18
  272. ID : 20
  273. Format : UTF-8
  274. Codec ID : S_TEXT/UTF8
  275. Codec ID/Info : UTF-8 Plain Text
  276. Duration : 49 min 15 s
  277. Bit rate : 53 b/s
  278. Count of elements : 621
  279. Stream size : 19.4 KiB (0%)
  280. Title : Finnish
  281. Language : Finnish
  282. Default : No
  283. Forced : No

  284. Text #19
  285. ID : 21
  286. Format : UTF-8
  287. Codec ID : S_TEXT/UTF8
  288. Codec ID/Info : UTF-8 Plain Text
  289. Duration : 49 min 15 s
  290. Bit rate : 59 b/s
  291. Count of elements : 628
  292. Stream size : 21.4 KiB (0%)
  293. Title : Norwegian (Bokmål)
  294. Language : Norwegian Bokmal
  295. Default : No
  296. Forced : No

  297. Text #20
  298. ID : 22
  299. Format : UTF-8
  300. Codec ID : S_TEXT/UTF8
  301. Codec ID/Info : UTF-8 Plain Text
  302. Duration : 51 min 21 s
  303. Bit rate : 58 b/s
  304. Count of elements : 751
  305. Stream size : 22.1 KiB (0%)
  306. Title : English
  307. Language : English
  308. Default : No
  309. Forced : No

  310. Text #21
  311. ID : 23
  312. Format : UTF-8
  313. Codec ID : S_TEXT/UTF8
  314. Codec ID/Info : UTF-8 Plain Text
  315. Duration : 49 min 15 s
  316. Bit rate : 102 b/s
  317. Count of elements : 629
  318. Stream size : 36.9 KiB (0%)
  319. Title : Russian
  320. Language : Russian
  321. Default : No
  322. Forced : No

  323. Text #22
  324. ID : 24
  325. Format : UTF-8
  326. Codec ID : S_TEXT/UTF8
  327. Codec ID/Info : UTF-8 Plain Text
  328. Duration : 49 min 15 s
  329. Bit rate : 56 b/s
  330. Count of elements : 623
  331. Stream size : 20.2 KiB (0%)
  332. Title : Brazilian Portuguese
  333. Language : Portuguese
  334. Default : No
  335. Forced : No

  336. Text #23
  337. ID : 25
  338. Format : UTF-8
  339. Codec ID : S_TEXT/UTF8
  340. Codec ID/Info : UTF-8 Plain Text
  341. Duration : 49 min 15 s
  342. Bit rate : 54 b/s
  343. Count of elements : 603
  344. Stream size : 19.5 KiB (0%)
  345. Title : Dutch
  346. Language : Dutch
  347. Default : No
  348. Forced : No

  349. Text #24
  350. ID : 26
  351. Format : UTF-8
  352. Codec ID : S_TEXT/UTF8
  353. Codec ID/Info : UTF-8 Plain Text
  354. Duration : 49 min 15 s
  355. Bit rate : 59 b/s
  356. Count of elements : 623
  357. Stream size : 21.6 KiB (0%)
  358. Title : Spanish
  359. Language : Spanish
  360. Default : No
  361. Forced : No

  362. Text #25
  363. ID : 27
  364. Format : UTF-8
  365. Codec ID : S_TEXT/UTF8
  366. Codec ID/Info : UTF-8 Plain Text
  367. Duration : 49 min 15 s
  368. Bit rate : 61 b/s
  369. Count of elements : 622
  370. Stream size : 22.0 KiB (0%)
  371. Title : Castilian
  372. Language : Spanish
  373. Default : No
  374. Forced : No

  375. Text #26
  376. ID : 28
  377. Format : UTF-8
  378. Codec ID : S_TEXT/UTF8
  379. Codec ID/Info : UTF-8 Plain Text
  380. Duration : 49 min 15 s
  381. Bit rate : 57 b/s
  382. Count of elements : 629
  383. Stream size : 20.8 KiB (0%)
  384. Title : Chinese (Simplified)
  385. Language : Chinese
  386. Default : No
  387. Forced : No

  388. Text #27
  389. ID : 29
  390. Format : UTF-8
  391. Codec ID : S_TEXT/UTF8
  392. Codec ID/Info : UTF-8 Plain Text
  393. Duration : 49 min 15 s
  394. Bit rate : 58 b/s
  395. Count of elements : 621
  396. Stream size : 21.1 KiB (0%)
  397. Title : Swedish
  398. Language : Swedish
  399. Default : No
  400. Forced : No

  401. Text #28
  402. ID : 30
  403. Format : UTF-8
  404. Codec ID : S_TEXT/UTF8
  405. Codec ID/Info : UTF-8 Plain Text
  406. Duration : 49 min 15 s
  407. Bit rate : 161 b/s
  408. Count of elements : 638
  409. Stream size : 58.3 KiB (0%)
  410. Title : Telugu
  411. Language : Telugu
  412. Default : No
  413. Forced : No

  414. Text #29
  415. ID : 31
  416. Format : UTF-8
  417. Codec ID : S_TEXT/UTF8
  418. Codec ID/Info : UTF-8 Plain Text
  419. Duration : 49 min 15 s
  420. Bit rate : 153 b/s
  421. Count of elements : 638
  422. Stream size : 55.3 KiB (0%)
  423. Title : Thai
  424. Language : Thai
  425. Default : No
  426. Forced : No

  427. Text #30
  428. ID : 32
  429. Format : UTF-8
  430. Codec ID : S_TEXT/UTF8
  431. Codec ID/Info : UTF-8 Plain Text
  432. Duration : 49 min 15 s
  433. Bit rate : 200 b/s
  434. Count of elements : 692
  435. Stream size : 72.2 KiB (0%)
  436. Title : Tamil
  437. Language : Tamil
  438. Default : No
  439. Forced : No

  440. Menu
  441. 00:00:00.000 : en:Amazon Original
  442. 00:00:05.000 : en:Bosch gets one step closer to closing Eleanor\'s case
  443. 00:07:36.000 : en:Opening Credits
  444. 00:08:38.000 : en:Bosch walks with Maddie near her late grandmother\'s grave
  445. 00:10:23.000 : en:Jerry tells Latonya there\'s a change of plans
  446. 00:12:52.000 : en:Maddie tells Bosch her college choice
  447. 00:14:51.000 : en:Walker calls Irving to share his concerns
  448. 00:18:22.000 : en:Billets warns Bosch at the station
  449. 00:20:58.000 : en:Jun meets with a reporter
  450. 00:23:02.000 : en:Jimmy gets a quick bite to eat with Terry Drake
  451. 00:25:02.000 : en:Bosch uncovers a new piece of evidence
  452. 00:30:52.000 : en:Bosch delivers the piece of evidence
  453. 00:34:02.000 : en:Grace reports to Irving that it\'s a weak turnout
  454. 00:35:59.000 : en:Jerry asks Maddie to locate Bosch
  455. 00:38:36.000 : en:Mayor Ramos arrives at the protest
  456. 00:40:51.000 : en:Jerry follows Bosch\'s location
  457. 00:49:49.000 : en:Bosch and Maddie lay Eleanor to rest in the desert
  458. 00:51:03.000 : en:End Credits
复制代码

哈里·博斯 / 波什 / 博什 / 博世/博斯 第四季4k Bosch.S04.2160p.AMZN.WEB-DL.x265.10bit.HDR10plus.DDP5.1.美剧下载

博斯 第四季4k Bosch.S04.2160p.AMZN.WEB-DL.x265.10bit.HDR10plus.DDP5.1【49.28 GB】
[Hao4k]博斯 第四季4k Bosch.S04.2160p.AMZN.WEB-DL.x265.10bit.HDR10plus.DDP5.1-iKA.torrent (124.48 KB)
回复

使用道具 举报

全部回复1

wayyuele 发表于 5 天前

wayyuele 沙发

5 天前

谢谢楼主的分享。
回复 支持 反对

使用道具 举报

   发表回复

您需要登录后才可以回帖 登录 | 立即注册

返回列表 本版积分规则

:
白银玩家
:
未填写

主题

帖子

积分995

图文推荐

  • 将羊毛薅到一根不剩--百度网盘免会员高速下

    百度网盘是要购买会员的,30大洋/月的会员费对于

  • Yuran DIY制定硬盘(UHD-BD)片源存储管理规

    有言在先:原创不易,深夜写成。也很忙,暂不回复

  • 2019年你必须知道的4k庭影院音响摆位8大重

    2019年你必须知道的4k庭影院音响摆位8大重点

  • 关于收藏《4KUHD蓝光原盘》还是《4KUHD蓝光

    《4K UHD 蓝光原盘》 优点:有导航菜单和电影幕后

  • 家庭影院组建指南:如何组建低预算的家庭影

    如何组建低预算的家庭影院 — 不发烧只为看电影

  • 在线客服

  • 返回顶部