微博 微信

Hao4K影音

[美剧] 六场危事4k Crisis.In.Six.Scenes.S01.2160p.美剧下载

4 天前 7184 1 |只看大图 回帖奖励 |倒序浏览 |阅读模式

大红色 楼主

5 天前

电视剧频道
电视剧封面:
电视剧名: 六场危事4k
年  代: 2016  
国  家: 美国
类  别: 喜剧 
语  言: 英语
字  幕: -
上映日期: 2016-09-30
文件格式: mkv    
视频效果: 4K(3840x2160)    
资源大小: 8.49 GB
片  长: 24 分钟
导  演: 伍迪·艾伦
剧情简介: 《六场危事》是一部时间设定在1960年代的喜剧,麦莉·赛勒斯、伊莱恩·梅等出演,讲述一个中产家庭在当年政治动乱中的故事。
六度危机/六场危事4k Crisis.In.Six.Scenes.S01.2160p.AMZN.WEBRip.DDP5.1.x265.美剧信息
  1. Video
  2. ID : 1
  3. Format : HEVC
  4. Format/Info : High Efficiency Video Coding
  5. Format profile : Main@L5@Main
  6. Codec ID : V_MPEGH/ISO/HEVC
  7. Duration : 24 min 14 s
  8. Bit rate : 9 526 kb/s
  9. Width : 3 840 pixels
  10. Height : 2 160 pixels
  11. Display aspect ratio : 16:9
  12. Frame rate mode : Constant
  13. Frame rate : 23.976 (24000/1001) FPS
  14. Standard : NTSC
  15. Color space : YUV
  16. Chroma subsampling : 4:2:0
  17. Bit depth : 8 bits
  18. Bits/(Pixel*Frame) : 0.048
  19. Stream size : 1.61 GiB (94%)
  20. Writing library : x265 2.9_elemental+1-9e0607aa5b6f:[Linux][GCC 4.8.5][64 bit] 8bit+10bit+12bit
  21. Encoding settings : cpuid=1111039 / frame-threads=2 / wpp / no-pmode / no-pme / psnr / ssim / log-level=2 / csv / csv-log-level=2 / input-csp=1 / input-res=3840x2160 / interlace=0 / total-frames=0 / level-idc=50 / high-tier=1 / uhd-bd=0 / ref=5 / no-allow-non-conformance / no-repeat-headers / annexb / no-aud / no-hrd / info / hash=0 / no-temporal-layers / no-open-gop / min-keyint=61 / keyint=120 / gop-lookahead=0 / bframes=8 / b-adapt=2 / b-pyramid / bframe-bias=0 / rc-lookahead=120 / lookahead-slices=4 / scenecut=0 / radl=0 / no-intra-refresh / ctu=64 / min-cu-size=8 / rect / amp / max-tu-size=32 / tu-inter-depth=4 / tu-intra-depth=4 / limit-tu=4 / rdoq-level=2 / dynamic-rd=0.00 / no-ssim-rd / signhide / tskip / nr-intra=100 / nr-inter=600 / no-constrained-intra / strong-intra-smoothing / max-merge=3 / limit-refs=3 / limit-modes / me=3 / subme=3 / merange=57 / temporal-mvp / weightp / weightb / no-analyze-src-pics / deblock=0:0 / no-sao / no-sao-non-deblock / rd=4 / no-early-skip / no-rskip / no-fast-intra / tskip-fast / no-cu-lossless / b-intra / no-splitrd-skip / rdpenalty=0 / psy-rd=4.00 / psy-rdoq=10.00 / no-rd-refine / no-lossless / cbqpoffs=0 / crqpoffs=0 / rc=crf / crf=25.0 / qcomp=0.60 / qpstep=1 / stats-write=0 / stats-read=0 / vbv-maxrate=15000 / vbv-bufsize=20000 / vbv-init=0.9 / crf-max=0.0 / crf-min=0.0 / ipratio=1.10 / pbratio=1.00 / aq-mode=0 / aq-strength=1.50 / no-cutree / zone-count=0 / no-strict-cbr / qg-size=32 / rc-grain / qpmax=69 / qpmin=0 / const-vbv / sar=1 / overscan=0 / videoformat=2 / range=0 / colorprim=1 / transfer=1 / colormatrix=1 / chromaloc=0 / display-window=0 / max-cll=0,0 / min-luma=0 / max-luma=255 / log2-max-poc-lsb=8 / vui-timing-info / vui-hrd-info / slices=1 / opt-qp-pps / no-opt-ref-list-length-pps / no-multi-pass-opt-rps / scenecut-bias=0.05 / no-opt-cu-delta-qp / no-aq-motion / no-hdr / no-hdr-opt / no-dhdr10-opt / no-idr-recovery-sei / analysis-reuse-level=5 / scale-factor=0 / refine-intra=0 / refine-inter=0 / refine-mv=0 / no-limit-sao / ctu-info=0 / no-lowpass-dct / refine-mv-type=0 / copy-pic=1 / max-ausize-factor=1.0 / no-dynamic-refine / no-single-sei
  22. Default : Yes
  23. Forced : No
  24. Color range : Limited
  25. Color primaries : BT.709
  26. Transfer characteristics : BT.709
  27. Matrix coefficients : BT.709

  28. Audio
  29. ID : 2
  30. Format : E-AC-3
  31. Format/Info : Enhanced AC-3
  32. Commercial name : Dolby Digital Plus
  33. Codec ID : A_EAC3
  34. Duration : 24 min 14 s
  35. Bit rate mode : Constant
  36. Bit rate : 640 kb/s
  37. Channel(s) : 6 channels
  38. Channel layout : L R C LFE Ls Rs
  39. Sampling rate : 48.0 kHz
  40. Frame rate : 31.250 FPS (1536 SPF)
  41. Compression mode : Lossy
  42. Stream size : 111 MiB (6%)
  43. Title : English
  44. Language : English
  45. Service kind : Complete Main
  46. Default : No
  47. Forced : No

  48. Text #1
  49. ID : 3
  50. Format : UTF-8
  51. Codec ID : S_TEXT/UTF8
  52. Codec ID/Info : UTF-8 Plain Text
  53. Duration : 22 min 26 s
  54. Bit rate : 86 b/s
  55. Count of elements : 458
  56. Stream size : 14.3 KiB (0%)
  57. Title : French
  58. Language : French
  59. Default : No
  60. Forced : No

  61. Text #2
  62. ID : 4
  63. Format : UTF-8
  64. Codec ID : S_TEXT/UTF8
  65. Codec ID/Info : UTF-8 Plain Text
  66. Duration : 22 min 26 s
  67. Bit rate : 92 b/s
  68. Count of elements : 454
  69. Stream size : 15.2 KiB (0%)
  70. Title : Castilian
  71. Language : Spanish
  72. Default : No
  73. Forced : No

  74. Text #3
  75. ID : 5
  76. Format : UTF-8
  77. Codec ID : S_TEXT/UTF8
  78. Codec ID/Info : UTF-8 Plain Text
  79. Duration : 22 min 19 s
  80. Bit rate : 77 b/s
  81. Count of elements : 426
  82. Stream size : 12.7 KiB (0%)
  83. Title : Japanese
  84. Language : Japanese
  85. Default : No
  86. Forced : No

  87. Text #4
  88. ID : 6
  89. Format : UTF-8
  90. Codec ID : S_TEXT/UTF8
  91. Codec ID/Info : UTF-8 Plain Text
  92. Duration : 22 min 26 s
  93. Bit rate : 93 b/s
  94. Count of elements : 401
  95. Stream size : 15.4 KiB (0%)
  96. Title : Italian
  97. Language : Italian
  98. Default : No
  99. Forced : No

  100. Text #5
  101. ID : 7
  102. Format : UTF-8
  103. Codec ID : S_TEXT/UTF8
  104. Codec ID/Info : UTF-8 Plain Text
  105. Duration : 22 min 25 s
  106. Bit rate : 103 b/s
  107. Count of elements : 442
  108. Stream size : 17.0 KiB (0%)
  109. Title : German
  110. Language : German
  111. Default : No
  112. Forced : No

  113. Text #6
  114. ID : 8
  115. Format : UTF-8
  116. Codec ID : S_TEXT/UTF8
  117. Codec ID/Info : UTF-8 Plain Text
  118. Duration : 22 min 26 s
  119. Bit rate : 86 b/s
  120. Count of elements : 435
  121. Stream size : 14.3 KiB (0%)
  122. Title : Brazilian Portuguese
  123. Language : Portuguese
  124. Default : No
  125. Forced : No

  126. Text #7
  127. ID : 9
  128. Format : UTF-8
  129. Codec ID : S_TEXT/UTF8
  130. Codec ID/Info : UTF-8 Plain Text
  131. Duration : 22 min 37 s
  132. Bit rate : 117 b/s
  133. Count of elements : 600
  134. Stream size : 19.4 KiB (0%)
  135. Title : English [SDH]
  136. Language : English
  137. Default : No
  138. Forced : No

  139. Text #8
  140. ID : 10
  141. Format : UTF-8
  142. Codec ID : S_TEXT/UTF8
  143. Codec ID/Info : UTF-8 Plain Text
  144. Duration : 22 min 26 s
  145. Bit rate : 90 b/s
  146. Count of elements : 453
  147. Stream size : 14.9 KiB (0%)
  148. Title : Spanish
  149. Language : Spanish
  150. Default : No
  151. Forced : No

  152. Text #9
  153. ID : 11
  154. Format : UTF-8
  155. Codec ID : S_TEXT/UTF8
  156. Codec ID/Info : UTF-8 Plain Text
  157. Duration : 22 min 18 s
  158. Bit rate : 114 b/s
  159. Count of elements : 574
  160. Stream size : 18.6 KiB (0%)
  161. Title : English
  162. Language : English
  163. Default : No
  164. Forced : No

  165. Menu
  166. 00:00:00.000 : en:Amazon Original
  167. 00:00:05.000 : en:Title Sequence
  168. 00:00:09.000 : en:The Munsingers have a number of unexpected guests
  169. 00:10:36.000 : en:Ellie makes an announcement
  170. 00:16:11.000 : en:Alan and Ellie patch things up
  171. 00:17:15.000 : en:Sidney gets pulled over
  172. 00:21:18.000 : en:Sidney thinks about writing a novel
  173. 00:22:45.000 : en:End Credits
复制代码

六度危机/六场危事4k Crisis.In.Six.Scenes.S01.2160p.AMZN.WEBRip.DDP5.1.x265.美剧下载

六场危事4k Crisis.In.Six.Scenes.S01.2160p.AMZN.WEBRip.DDP5.1.x265【8.49 GB】
[Hao4k]六场危事4k Crisis.In.Six.Scenes.S01.2160p.AMZN.WEBRip.DDP5.1.x265-iKA[rar.torrent (43.46 KB)
回复

使用道具 举报

全部回复1

aybwow 发表于 4 天前

aybwow 沙发

4 天前

非常喜欢伍迪艾伦的电影,感谢分享
回复 支持 反对

使用道具 举报

   发表回复

您需要登录后才可以回帖 登录 | 立即注册

返回列表 本版积分规则

:
白银玩家
:
未填写

主题

帖子

积分995

图文推荐

  • Yuran DIY制定硬盘(UHD-BD)片源存储管理规

    有言在先:原创不易,深夜写成。也很忙,暂不回复

  • 将羊毛薅到一根不剩--百度网盘免会员高速下

    百度网盘是要购买会员的,30大洋/月的会员费对于

  • 亿格瑞4K播放机怎么使用transmission下载PT

    最近有不少喜欢下载4K电影的朋友都在问:“能不

  • 客厅回音壁能达到家庭影院效果吗?看完你就

    随着人们生活水平的逐渐提高,很多人都在卖房子装

  • 教你怎么PC电脑正确播放4K HDR电影【potpla

    如果观看4K HDR视频和电影的时候,使用不正确的方

  • 在线客服

  • 返回顶部