微博 微信

Hao4K影音

[美剧] 传说 第一季4k Lore.S01.美剧下载

6 天前 18970 5 |只看大图 回帖奖励 |倒序浏览 |阅读模式

大红色 楼主

2021-2-23 21:20:44

电视剧频道
电视剧封面:
电视剧名: 传说 第一季4k
年  代: 2017  
国  家: 美国
类  别: 恐怖 
语  言: 英语
字  幕: -
上映日期: 2017-10-13
文件格式: mkv    
视频效果: 4K(3840x2160)    
资源大小: -
片  长: 40 分钟
导  演: 达内尔·马丁 / 托马斯·J.怀特 / 尼克·科普斯 / 迈克尔·E·萨特拉米斯
剧情简介:  《Lore》改编自2015年获奖同名热门Podcast节目,由 Aaron Mahnke 编剧,透过检视真时历史事件探索人类的黑暗本质。打着「有时真相比虚构的故事更可怕」的口号,节目中所有故事源於真实调查丶目击者报告和历史档案。从吸血鬼传说丶活尸的起源丶狼人到美国史上第一个连环杀手 H.H. Holmes 皆为《Lore》触及的题材。
口头传说 / 走进传说/传说 第一季4k Lore.S01.2160p.AMZN.WEB-DL.x265.10bit.HDR10plus.DDP5.1.美剧信息
  1. Video
  2. ID : 1
  3. Format : HEVC
  4. Format/Info : High Efficiency Video Coding
  5. Format profile : Main 10@L5@Main
  6. HDR format : SMPTE ST 2094 App 4, Version 0, HDR10 compatible
  7. Codec ID : V_MPEGH/ISO/HEVC
  8. Duration : 53 min 55 s
  9. Bit rate : 14.4 Mb/s
  10. Width : 3 840 pixels
  11. Height : 2 160 pixels
  12. Display aspect ratio : 16:9
  13. Frame rate mode : Constant
  14. Frame rate : 23.976 (24000/1001) FPS
  15. Standard : NTSC
  16. Color space : YUV
  17. Chroma subsampling : 4:2:0 (Type 2)
  18. Bit depth : 10 bits
  19. Bits/(Pixel*Frame) : 0.072
  20. Stream size : 5.42 GiB (96%)
  21. Default : Yes
  22. Forced : No
  23. Color range : Limited
  24. Color primaries : BT.2020
  25. Transfer characteristics : PQ
  26. Matrix coefficients : BT.2020 non-constant
  27. Mastering display color primaries : Display P3
  28. Mastering display luminance : min: 0.0001 cd/m2, max: 1000 cd/m2
  29. Maximum Content Light Level : 999 cd/m2
  30. Maximum Frame-Average Light Level : 678 cd/m2

  31. Audio
  32. ID : 2
  33. Format : E-AC-3
  34. Format/Info : Enhanced AC-3
  35. Commercial name : Dolby Digital Plus
  36. Codec ID : A_EAC3
  37. Duration : 53 min 55 s
  38. Bit rate mode : Constant
  39. Bit rate : 640 kb/s
  40. Channel(s) : 6 channels
  41. Channel layout : L R C LFE Ls Rs
  42. Sampling rate : 48.0 kHz
  43. Frame rate : 31.250 FPS (1536 SPF)
  44. Compression mode : Lossy
  45. Stream size : 247 MiB (4%)
  46. Title : English
  47. Language : English
  48. Service kind : Complete Main
  49. Default : No
  50. Forced : No

  51. Text #1
  52. ID : 3
  53. Format : UTF-8
  54. Codec ID : S_TEXT/UTF8
  55. Codec ID/Info : UTF-8 Plain Text
  56. Duration : 52 min 21 s
  57. Bit rate : 44 b/s
  58. Count of elements : 543
  59. Stream size : 17.1 KiB (0%)
  60. Title : French
  61. Language : French
  62. Default : No
  63. Forced : No

  64. Text #2
  65. ID : 4
  66. Format : UTF-8
  67. Codec ID : S_TEXT/UTF8
  68. Codec ID/Info : UTF-8 Plain Text
  69. Duration : 52 min 21 s
  70. Bit rate : 39 b/s
  71. Count of elements : 540
  72. Stream size : 15.1 KiB (0%)
  73. Title : Swedish
  74. Language : Swedish
  75. Default : No
  76. Forced : No

  77. Text #3
  78. ID : 5
  79. Format : UTF-8
  80. Codec ID : S_TEXT/UTF8
  81. Codec ID/Info : UTF-8 Plain Text
  82. Duration : 52 min 21 s
  83. Bit rate : 40 b/s
  84. Count of elements : 545
  85. Stream size : 15.6 KiB (0%)
  86. Title : Castilian
  87. Language : Spanish
  88. Default : No
  89. Forced : No

  90. Text #4
  91. ID : 6
  92. Format : UTF-8
  93. Codec ID : S_TEXT/UTF8
  94. Codec ID/Info : UTF-8 Plain Text
  95. Duration : 52 min 22 s
  96. Bit rate : 40 b/s
  97. Count of elements : 466
  98. Stream size : 15.4 KiB (0%)
  99. Title : German
  100. Language : German
  101. Default : No
  102. Forced : No

  103. Text #5
  104. ID : 7
  105. Format : UTF-8
  106. Codec ID : S_TEXT/UTF8
  107. Codec ID/Info : UTF-8 Plain Text
  108. Duration : 52 min 21 s
  109. Bit rate : 37 b/s
  110. Count of elements : 547
  111. Stream size : 14.3 KiB (0%)
  112. Title : Chinese (Simplified)
  113. Language : Chinese
  114. Default : No
  115. Forced : No

  116. Text #6
  117. ID : 8
  118. Format : UTF-8
  119. Codec ID : S_TEXT/UTF8
  120. Codec ID/Info : UTF-8 Plain Text
  121. Duration : 52 min 21 s
  122. Bit rate : 38 b/s
  123. Count of elements : 534
  124. Stream size : 14.7 KiB (0%)
  125. Title : Indonesian
  126. Language : Indonesian
  127. Default : No
  128. Forced : No

  129. Text #7
  130. ID : 9
  131. Format : UTF-8
  132. Codec ID : S_TEXT/UTF8
  133. Codec ID/Info : UTF-8 Plain Text
  134. Duration : 52 min 21 s
  135. Bit rate : 40 b/s
  136. Count of elements : 547
  137. Stream size : 15.5 KiB (0%)
  138. Title : Turkish
  139. Language : Turkish
  140. Default : No
  141. Forced : No

  142. Text #8
  143. ID : 10
  144. Format : UTF-8
  145. Codec ID : S_TEXT/UTF8
  146. Codec ID/Info : UTF-8 Plain Text
  147. Duration : 52 min 21 s
  148. Bit rate : 42 b/s
  149. Count of elements : 541
  150. Stream size : 16.3 KiB (0%)
  151. Title : Spanish
  152. Language : Spanish
  153. Default : No
  154. Forced : No

  155. Text #9
  156. ID : 11
  157. Format : UTF-8
  158. Codec ID : S_TEXT/UTF8
  159. Codec ID/Info : UTF-8 Plain Text
  160. Duration : 52 min 21 s
  161. Bit rate : 35 b/s
  162. Count of elements : 547
  163. Stream size : 13.8 KiB (0%)
  164. Title : Chinese (Traditional)
  165. Language : Chinese
  166. Default : No
  167. Forced : No

  168. Text #10
  169. ID : 12
  170. Format : UTF-8
  171. Codec ID : S_TEXT/UTF8
  172. Codec ID/Info : UTF-8 Plain Text
  173. Duration : 52 min 21 s
  174. Bit rate : 37 b/s
  175. Count of elements : 512
  176. Stream size : 14.6 KiB (0%)
  177. Title : Dutch
  178. Language : Dutch
  179. Default : No
  180. Forced : No

  181. Text #11
  182. ID : 13
  183. Format : UTF-8
  184. Codec ID : S_TEXT/UTF8
  185. Codec ID/Info : UTF-8 Plain Text
  186. Duration : 52 min 21 s
  187. Bit rate : 43 b/s
  188. Count of elements : 547
  189. Stream size : 16.5 KiB (0%)
  190. Title : Italian
  191. Language : Italian
  192. Default : No
  193. Forced : No

  194. Text #12
  195. ID : 14
  196. Format : UTF-8
  197. Codec ID : S_TEXT/UTF8
  198. Codec ID/Info : UTF-8 Plain Text
  199. Duration : 52 min 21 s
  200. Bit rate : 40 b/s
  201. Count of elements : 545
  202. Stream size : 15.7 KiB (0%)
  203. Title : Finnish
  204. Language : Finnish
  205. Default : No
  206. Forced : No

  207. Text #13
  208. ID : 15
  209. Format : UTF-8
  210. Codec ID : S_TEXT/UTF8
  211. Codec ID/Info : UTF-8 Plain Text
  212. Duration : 52 min 21 s
  213. Bit rate : 42 b/s
  214. Count of elements : 534
  215. Stream size : 16.2 KiB (0%)
  216. Title : Brazilian Portuguese
  217. Language : Portuguese
  218. Default : No
  219. Forced : No

  220. Text #14
  221. ID : 16
  222. Format : UTF-8
  223. Codec ID : S_TEXT/UTF8
  224. Codec ID/Info : UTF-8 Plain Text
  225. Duration : 52 min 21 s
  226. Bit rate : 39 b/s
  227. Count of elements : 547
  228. Stream size : 15.1 KiB (0%)
  229. Title : Norwegian (Bokmål)
  230. Language : Norwegian Bokmal
  231. Default : No
  232. Forced : No

  233. Text #15
  234. ID : 17
  235. Format : UTF-8
  236. Codec ID : S_TEXT/UTF8
  237. Codec ID/Info : UTF-8 Plain Text
  238. Duration : 52 min 21 s
  239. Bit rate : 35 b/s
  240. Count of elements : 515
  241. Stream size : 13.7 KiB (0%)
  242. Title : Polish
  243. Language : Polish
  244. Default : No
  245. Forced : No

  246. Text #16
  247. ID : 18
  248. Format : UTF-8
  249. Codec ID : S_TEXT/UTF8
  250. Codec ID/Info : UTF-8 Plain Text
  251. Duration : 52 min 21 s
  252. Bit rate : 38 b/s
  253. Count of elements : 532
  254. Stream size : 14.9 KiB (0%)
  255. Title : Danish
  256. Language : Danish
  257. Default : No
  258. Forced : No

  259. Text #17
  260. ID : 19
  261. Format : UTF-8
  262. Codec ID : S_TEXT/UTF8
  263. Codec ID/Info : UTF-8 Plain Text
  264. Duration : 52 min 21 s
  265. Bit rate : 36 b/s
  266. Count of elements : 520
  267. Stream size : 13.9 KiB (0%)
  268. Title : Japanese
  269. Language : Japanese
  270. Default : No
  271. Forced : No

  272. Text #18
  273. ID : 20
  274. Format : UTF-8
  275. Codec ID : S_TEXT/UTF8
  276. Codec ID/Info : UTF-8 Plain Text
  277. Duration : 52 min 21 s
  278. Bit rate : 68 b/s
  279. Count of elements : 547
  280. Stream size : 26.3 KiB (0%)
  281. Title : Russian
  282. Language : Russian
  283. Default : No
  284. Forced : No

  285. Text #19
  286. ID : 21
  287. Format : UTF-8
  288. Codec ID : S_TEXT/UTF8
  289. Codec ID/Info : UTF-8 Plain Text
  290. Duration : 52 min 21 s
  291. Bit rate : 113 b/s
  292. Count of elements : 534
  293. Stream size : 43.4 KiB (0%)
  294. Title : Tamil
  295. Language : Tamil
  296. Default : No
  297. Forced : No

  298. Text #20
  299. ID : 22
  300. Format : UTF-8
  301. Codec ID : S_TEXT/UTF8
  302. Codec ID/Info : UTF-8 Plain Text
  303. Duration : 52 min 21 s
  304. Bit rate : 54 b/s
  305. Count of elements : 547
  306. Stream size : 21.0 KiB (0%)
  307. Title : Hebrew
  308. Language : Hebrew
  309. Default : No
  310. Forced : No

  311. Text #21
  312. ID : 23
  313. Format : UTF-8
  314. Codec ID : S_TEXT/UTF8
  315. Codec ID/Info : UTF-8 Plain Text
  316. Duration : 52 min 21 s
  317. Bit rate : 103 b/s
  318. Count of elements : 546
  319. Stream size : 39.6 KiB (0%)
  320. Title : Thai
  321. Language : Thai
  322. Default : No
  323. Forced : No

  324. Text #22
  325. ID : 24
  326. Format : UTF-8
  327. Codec ID : S_TEXT/UTF8
  328. Codec ID/Info : UTF-8 Plain Text
  329. Duration : 52 min 21 s
  330. Bit rate : 66 b/s
  331. Count of elements : 547
  332. Stream size : 25.5 KiB (0%)
  333. Title : Arabic
  334. Language : Arabic
  335. Default : No
  336. Forced : No

  337. Text #23
  338. ID : 25
  339. Format : UTF-8
  340. Codec ID : S_TEXT/UTF8
  341. Codec ID/Info : UTF-8 Plain Text
  342. Duration : 52 min 21 s
  343. Bit rate : 106 b/s
  344. Count of elements : 547
  345. Stream size : 41.0 KiB (0%)
  346. Title : Hindi
  347. Language : Hindi
  348. Default : No
  349. Forced : No

  350. Text #24
  351. ID : 26
  352. Format : UTF-8
  353. Codec ID : S_TEXT/UTF8
  354. Codec ID/Info : UTF-8 Plain Text
  355. Duration : 52 min 14 s
  356. Bit rate : 50 b/s
  357. Count of elements : 730
  358. Stream size : 19.3 KiB (0%)
  359. Title : English [SDH]
  360. Language : English
  361. Default : No
  362. Forced : No

  363. Text #25
  364. ID : 27
  365. Format : UTF-8
  366. Codec ID : S_TEXT/UTF8
  367. Codec ID/Info : UTF-8 Plain Text
  368. Duration : 51 min 46 s
  369. Bit rate : 42 b/s
  370. Count of elements : 591
  371. Stream size : 16.1 KiB (0%)
  372. Title : English
  373. Language : English
  374. Default : No
  375. Forced : No

  376. Text #26
  377. ID : 28
  378. Format : UTF-8
  379. Codec ID : S_TEXT/UTF8
  380. Codec ID/Info : UTF-8 Plain Text
  381. Duration : 52 min 21 s
  382. Bit rate : 107 b/s
  383. Count of elements : 547
  384. Stream size : 41.2 KiB (0%)
  385. Title : Telugu
  386. Language : Telugu
  387. Default : No
  388. Forced : No

  389. Text #27
  390. ID : 29
  391. Format : UTF-8
  392. Codec ID : S_TEXT/UTF8
  393. Codec ID/Info : UTF-8 Plain Text
  394. Duration : 52 min 21 s
  395. Bit rate : 45 b/s
  396. Count of elements : 547
  397. Stream size : 17.3 KiB (0%)
  398. Title : Korean
  399. Language : Korean
  400. Default : No
  401. Forced : No

  402. Menu
  403. 00:00:00.000 : en:Amazon Original
  404. 00:00:05.000 : en:Not all who are buried are dead
  405. 00:01:19.000 : en:Title Sequence
  406. 00:01:49.000 : en:Burke and Hare receive a strange job opportunity
  407. 00:06:36.000 : en:It\'s all in the name of science
  408. 00:11:09.000 : en:Burke celebrates his new source of income
  409. 00:13:13.000 : en:Burke is willing to do anything for money
  410. 00:21:35.000 : en:Burke and Hare have managed to work out a system
  411. 00:29:32.000 : en:Hare starts to have a guilty conscience
  412. 00:33:56.000 : en:An accident turns deadly
  413. 00:39:14.000 : en:Hare tries to get out
  414. 00:46:10.000 : en:Hare does what he has to, in the name of science
  415. 00:52:30.000 : en:End Credits
复制代码

口头传说 / 走进传说/传说 第一季4k Lore.S01.2160p.AMZN.WEB-DL.x265.10bit.HDR10plus.DDP5.1.美剧下载

传说 第一季4k Lore.S01.2160p.AMZN.WEB-DL.x265.10bit.HDR10plus.DDP5.1【25.00 GB】
[Hao4k]传说 第一季4k Lore.S01.2160p.AMZN.WEB-DL.x265.10bit.HDR10plus.DDP5.1-iKA[.torrent (63.44 KB)
回复

使用道具 举报

全部回复5

点石成珍 发表于 7 天前

点石成珍 沙发

7 天前

感觉剧情好阴暗
回复 支持 反对

使用道具 举报

sgflshu 发表于 7 天前

sgflshu 板凳

7 天前

谢谢楼主分享,有没有中文字幕?
回复 支持 反对

使用道具 举报

chakoo 发表于 7 天前

chakoo 地板

7 天前

这题材不错,顶
回复 支持 反对

使用道具 举报

hongfei85 发表于 7 天前

hongfei85 5#

7 天前


据说这部片子很难懂,,谢谢楼主呢,,
回复 支持 反对

使用道具 举报

wolf0123 发表于 6 天前

wolf0123 6#

6 天前

谢谢分享
回复 支持 反对

使用道具 举报

   发表回复

您需要登录后才可以回帖 登录 | 立即注册

返回列表 本版积分规则

:
白银玩家
:
未填写

主题

帖子

积分997

图文推荐

  • 求助,优派PX748投影偏红色严重,基本没黑

    TM8999买的,优派PX748投影到了,偏红色严重,基

  • 送给老婆的礼物:成都7.1.4家庭影院案例分

    这个7.1.4的杜比全景声家庭影院案例是成都的用户T

  • 预算8万的5.1.4全景声4K客厅家庭影院案例分

    阿木在自己新家的客厅搞了一个5.1.4的杜比全景声4

  • 86寸仅售7999元?Redmi MAX 86寸测评

    估计大伙儿看到86英寸价格7999元就兴奋起来了,这

  • 刚买了个好东西:16T的单盘移动硬盘。

    刚买了个好东西:16T的单碟移动硬盘。中亚上买的

  • 在线客服

  • 返回顶部