微博 微信

Hao4K影音

[美剧] 馈 第一季4k The.Feed.2019.S01.2160p.美剧下载

5 天前 9213 2 |只看大图 回帖奖励 |倒序浏览 |阅读模式

大红色 楼主

6 天前

电视剧频道
电视剧封面:
电视剧名: 馈 第一季4k
年  代: 2019  
国  家: 美国
类  别: 科幻 剧情 
语  言: 英语
字  幕: -
上映日期: 2019-11-22
文件格式: mkv    
视频效果: 4K(3840x2160)    
资源大小: 58.92 GB
片  长: 56 分钟
导  演: 卡尔·蒂贝茨 / 米沙·曼森-史密斯 / 吉尔·罗伯森 / 科林·蒂格 / 汀治·克里希南
剧情简介: 欢迎来到“馈”世界!
  在不远的将来,“馈”技术联结起地球上所有人的意识,让我们可以即时分享各自的信息、情感和记忆。然而在系统遭受神秘侵入后,用户开始出现杀人行为,创始人一家则因难以掌控“馈”这头可怕的技术怪物而逐渐分崩离析——每一个人都危在旦夕。
  剧集由《行尸走肉》制作人兼编剧钱宁·鲍威尔(Channing Powell)开发,改编自尼克·克拉克·温多(Nick Clark Windo)的同名后末日小说;由英国兰伯特工作室和亚马逊工作室制作,并由亚马逊prime video、自由全球和国际All3Media分区发行。
馈联/馈 第一季4k The.Feed.2019.S01.2160p.AMZN.WEB-DL.x265.10bit.HDR10plus.DDP5.1.美剧信息
  1. Video
  2. ID : 1
  3. Format : HEVC
  4. Format/Info : High Efficiency Video Coding
  5. Format profile : Main 10@L5@Main
  6. HDR format : SMPTE ST 2094 App 4, Version 0, HDR10 compatible
  7. Codec ID : V_MPEGH/ISO/HEVC
  8. Duration : 57 min 26 s
  9. Bit rate : 14.7 Mb/s
  10. Width : 3 840 pixels
  11. Height : 2 160 pixels
  12. Display aspect ratio : 16:9
  13. Frame rate mode : Constant
  14. Frame rate : 24.000 FPS
  15. Standard : NTSC
  16. Color space : YUV
  17. Chroma subsampling : 4:2:0 (Type 2)
  18. Bit depth : 10 bits
  19. Bits/(Pixel*Frame) : 0.074
  20. Stream size : 5.90 GiB (96%)
  21. Default : Yes
  22. Forced : No
  23. Color range : Limited
  24. Color primaries : BT.2020
  25. Transfer characteristics : PQ
  26. Matrix coefficients : BT.2020 non-constant
  27. Mastering display color primaries : Display P3
  28. Mastering display luminance : min: 0.0001 cd/m2, max: 1000 cd/m2
  29. Maximum Content Light Level : 957 cd/m2
  30. Maximum Frame-Average Light Level : 422 cd/m2

  31. Audio
  32. ID : 2
  33. Format : E-AC-3
  34. Format/Info : Enhanced AC-3
  35. Commercial name : Dolby Digital Plus
  36. Codec ID : A_EAC3
  37. Duration : 57 min 26 s
  38. Bit rate mode : Constant
  39. Bit rate : 640 kb/s
  40. Channel(s) : 6 channels
  41. Channel layout : L R C LFE Ls Rs
  42. Sampling rate : 48.0 kHz
  43. Frame rate : 31.250 FPS (1536 SPF)
  44. Compression mode : Lossy
  45. Stream size : 263 MiB (4%)
  46. Title : English
  47. Language : English
  48. Service kind : Complete Main
  49. Default : No
  50. Forced : No

  51. Text #1
  52. ID : 3
  53. Format : UTF-8
  54. Codec ID : S_TEXT/UTF8
  55. Codec ID/Info : UTF-8 Plain Text
  56. Duration : 57 min 11 s
  57. Bit rate : 64 b/s
  58. Count of elements : 825
  59. Stream size : 27.1 KiB (0%)
  60. Title : French (Canada)
  61. Language : French
  62. Default : No
  63. Forced : No

  64. Text #2
  65. ID : 4
  66. Format : UTF-8
  67. Codec ID : S_TEXT/UTF8
  68. Codec ID/Info : UTF-8 Plain Text
  69. Duration : 57 min 11 s
  70. Bit rate : 61 b/s
  71. Count of elements : 825
  72. Stream size : 25.9 KiB (0%)
  73. Title : Brazilian Portuguese
  74. Language : Portuguese
  75. Default : No
  76. Forced : No

  77. Text #3
  78. ID : 5
  79. Format : UTF-8
  80. Codec ID : S_TEXT/UTF8
  81. Codec ID/Info : UTF-8 Plain Text
  82. Duration : 56 min 12 s
  83. Bit rate : 76 b/s
  84. Count of elements : 1091
  85. Stream size : 31.4 KiB (0%)
  86. Title : English [SDH]
  87. Language : English
  88. Default : No
  89. Forced : No

  90. Text #4
  91. ID : 6
  92. Format : UTF-8
  93. Codec ID : S_TEXT/UTF8
  94. Codec ID/Info : UTF-8 Plain Text
  95. Duration : 57 min 11 s
  96. Bit rate : 58 b/s
  97. Count of elements : 825
  98. Stream size : 24.6 KiB (0%)
  99. Title : Spanish
  100. Language : Spanish
  101. Default : No
  102. Forced : No

  103. Text #5
  104. ID : 7
  105. Format : UTF-8
  106. Codec ID : S_TEXT/UTF8
  107. Codec ID/Info : UTF-8 Plain Text
  108. Duration : 56 min 12 s
  109. Bit rate : 69 b/s
  110. Count of elements : 997
  111. Stream size : 28.6 KiB (0%)
  112. Title : English
  113. Language : English
  114. Default : No
  115. Forced : No

  116. Menu
  117. 00:00:00.000 : en:Studio Logo
  118. 00:00:05.000 : en:Opening Credits
  119. 00:01:05.000 : en:The party starts
  120. 00:03:40.000 : en:Lawrence gives a speech
  121. 00:06:13.000 : en:Tom meets Kate
  122. 00:09:00.000 : en:Kate feels something special towards Tom
  123. 00:11:03.000 : en:Gil reports to Meredith
  124. 00:12:15.000 : en:Kate wakes up on the bed
  125. 00:14:57.000 : en:Tom has an appointment with Danny
  126. 00:16:57.000 : en:Ben brings a message
  127. 00:19:44.000 : en:Meredith meets Kate
  128. 00:21:52.000 : en:Tom looks for clues about Dmitri
  129. 00:24:33.000 : en:Tom councils to Anton
  130. 00:30:14.000 : en:They look for Dmitri
  131. 00:31:46.000 : en:Tom watches Anton\'s news
  132. 00:34:01.000 : en:Evelyn and Max are talking
  133. 00:35:40.000 : en:Kate sees a doctor
  134. 00:36:44.000 : en:Having dinner with friends
  135. 00:42:46.000 : en:Kate and Tom are in a taxi
  136. 00:43:37.000 : en:Lawrence continues to work
  137. 00:45:36.000 : en:Sue comes to ask questions
  138. 00:46:44.000 : en:Everything is under control
  139. 00:51:10.000 : en:A perfect daughter
  140. 00:52:35.000 : en:Evelyn tells Max about a baby
  141. 00:55:23.000 : en:Lawrence comes to see Sara
  142. 00:56:21.000 : en:End Credits
复制代码

馈联/馈 第一季4k The.Feed.2019.S01.2160p.AMZN.WEB-DL.x265.10bit.HDR10plus.DDP5.1.美剧下载

馈 第一季4k The.Feed.2019.S01.2160p.AMZN.WEB-DL.x265.10bit.HDR10plus.DDP5.1【58.92 GB】
[Hao4k]馈4k The.Feed.2019.S01.2160p.AMZN.WEB-DL.x265.10bit.HDR10plus.DDP5.1-iKA[.torrent (148.59 KB)
回复

使用道具 举报

全部回复2

wayyuele 发表于 6 天前

wayyuele 沙发

6 天前

奈飞这类公司真是牛,电影电视随便拍拍的!谢谢楼主的分享
回复 支持 反对

使用道具 举报

wolf0123 发表于 5 天前

wolf0123 板凳

5 天前

谢谢分享!
回复 支持 反对

使用道具 举报

   发表回复

您需要登录后才可以回帖 登录 | 立即注册

返回列表 本版积分规则

:
白银玩家
:
未填写

主题

帖子

积分995

图文推荐

  • 实力曝光不为人知的hifi影音行业:从厂商、

    实力曝光不为人知的hifi影音行业:从厂商、媒体至

  • 历经一个月研究:蜗牛星际A\B\C\D款机箱

    历经一个月研究:蜗牛星际ABCD款机箱和功能分

  • 刚买了个好东西:16T的单盘移动硬盘。

    刚买了个好东西:16T的单碟移动硬盘。中亚上买的

  • 【新手教程】抛弃移动硬盘、直连电脑FTP服

    简单说下个人情况:电视55X9500G,没有NAS,

  • 小米电视4A50寸不支持HDR

    小米电视不支持HDR可以通过外接播放器实现HDR效果

  • 在线客服

  • 返回顶部