微博 微信

Hao4K影音

[美剧] 熙德4k El.Cid.S01.SPANISH.2160p.美剧下载

昨天 21:42 13529 4 |只看大图 回帖奖励 |倒序浏览 |阅读模式

大红色 楼主

3 天前

电视剧频道
电视剧封面:
电视剧名: 熙德4k
年  代: 2020  
国  家: 美国
类  别: 剧情 
语  言: 英语
字  幕: -
上映日期: 2020-12-18
文件格式: mkv    
视频效果: 4K(3840x2160)    
资源大小: 31.04 GB
片  长: -
导  演: 路易斯·阿兰兹 / José Velasco / 阿道弗·马丁内斯·佩雷斯
剧情简介:  The story of Rodrigo Díaz de Vivar, a Castilian nobleman and war hero in medieval Spain.
锡德 / 西德传 / 圣剑 / 万世英雄/熙德4k El.Cid.S01.SPANISH.2160p.AMZN.WEB-DL.x265.10bit.HDR10plus.DDP5.1.美剧信息
  1. Video
  2. ID : 1
  3. Format : HEVC
  4. Format/Info : High Efficiency Video Coding
  5. Format profile : Main 10@L5@Main
  6. HDR format : SMPTE ST 2094 App 4, Version 1, HDR10+ Profile B compatible
  7. Codec ID : V_MPEGH/ISO/HEVC
  8. Duration : 1 h 12 min
  9. Bit rate : 14.6 Mb/s
  10. Width : 3 840 pixels
  11. Height : 1 920 pixels
  12. Display aspect ratio : 2.000
  13. Frame rate mode : Constant
  14. Frame rate : 25.000 FPS
  15. Color space : YUV
  16. Chroma subsampling : 4:2:0
  17. Bit depth : 10 bits
  18. Bits/(Pixel*Frame) : 0.079
  19. Stream size : 7.36 GiB (96%)
  20. Default : Yes
  21. Forced : No
  22. Color range : Limited
  23. Color primaries : BT.2020
  24. Transfer characteristics : PQ
  25. Matrix coefficients : BT.2020 non-constant
  26. Mastering display color primaries : Display P3
  27. Mastering display luminance : min: 0.0001 cd/m2, max: 1000 cd/m2
  28. Maximum Content Light Level : 901 cd/m2
  29. Maximum Frame-Average Light Level : 326 cd/m2

  30. Audio
  31. ID : 2
  32. Format : E-AC-3
  33. Format/Info : Enhanced AC-3
  34. Commercial name : Dolby Digital Plus
  35. Codec ID : A_EAC3
  36. Duration : 1 h 12 min
  37. Bit rate mode : Constant
  38. Bit rate : 640 kb/s
  39. Channel(s) : 6 channels
  40. Channel layout : L R C LFE Ls Rs
  41. Sampling rate : 48.0 kHz
  42. Frame rate : 31.250 FPS (1536 SPF)
  43. Compression mode : Lossy
  44. Stream size : 330 MiB (4%)
  45. Title : Castilian
  46. Language : Spanish
  47. Service kind : Complete Main
  48. Default : No
  49. Forced : No

  50. Text #1
  51. ID : 3
  52. Format : UTF-8
  53. Codec ID : S_TEXT/UTF8
  54. Codec ID/Info : UTF-8 Plain Text
  55. Duration : 1 h 11 min
  56. Bit rate : 35 b/s
  57. Count of elements : 689
  58. Stream size : 18.8 KiB (0%)
  59. Title : Turkish
  60. Language : Turkish
  61. Default : No
  62. Forced : No

  63. Text #2
  64. ID : 4
  65. Format : UTF-8
  66. Codec ID : S_TEXT/UTF8
  67. Codec ID/Info : UTF-8 Plain Text
  68. Duration : 1 h 11 min
  69. Bit rate : 33 b/s
  70. Count of elements : 689
  71. Stream size : 17.7 KiB (0%)
  72. Title : Danish
  73. Language : Danish
  74. Default : No
  75. Forced : No

  76. Text #3
  77. ID : 5
  78. Format : UTF-8
  79. Codec ID : S_TEXT/UTF8
  80. Codec ID/Info : UTF-8 Plain Text
  81. Duration : 1 h 11 min
  82. Bit rate : 90 b/s
  83. Count of elements : 689
  84. Stream size : 47.5 KiB (0%)
  85. Title : Thai
  86. Language : Thai
  87. Default : No
  88. Forced : No

  89. Text #4
  90. ID : 6
  91. Format : UTF-8
  92. Codec ID : S_TEXT/UTF8
  93. Codec ID/Info : UTF-8 Plain Text
  94. Duration : 1 h 11 min
  95. Bit rate : 87 b/s
  96. Count of elements : 689
  97. Stream size : 45.9 KiB (0%)
  98. Title : Hindi
  99. Language : Hindi
  100. Default : No
  101. Forced : No

  102. Text #5
  103. ID : 7
  104. Format : UTF-8
  105. Codec ID : S_TEXT/UTF8
  106. Codec ID/Info : UTF-8 Plain Text
  107. Duration : 1 h 11 min
  108. Bit rate : 41 b/s
  109. Count of elements : 689
  110. Stream size : 21.9 KiB (0%)
  111. Title : Korean
  112. Language : Korean
  113. Default : No
  114. Forced : No

  115. Text #6
  116. ID : 8
  117. Format : UTF-8
  118. Codec ID : S_TEXT/UTF8
  119. Codec ID/Info : UTF-8 Plain Text
  120. Duration : 1 h 11 min
  121. Bit rate : 33 b/s
  122. Count of elements : 689
  123. Stream size : 17.6 KiB (0%)
  124. Title : Indonesian
  125. Language : Indonesian
  126. Default : No
  127. Forced : No

  128. Text #7
  129. ID : 9
  130. Format : UTF-8
  131. Codec ID : S_TEXT/UTF8
  132. Codec ID/Info : UTF-8 Plain Text
  133. Duration : 1 h 11 min
  134. Bit rate : 32 b/s
  135. Count of elements : 671
  136. Stream size : 17.1 KiB (0%)
  137. Title : Japanese
  138. Language : Japanese
  139. Default : No
  140. Forced : No

  141. Text #8
  142. ID : 10
  143. Format : UTF-8
  144. Codec ID : S_TEXT/UTF8
  145. Codec ID/Info : UTF-8 Plain Text
  146. Duration : 1 h 9 min
  147. Bit rate : 34 b/s
  148. Count of elements : 686
  149. Stream size : 17.8 KiB (0%)
  150. Title : English
  151. Language : English
  152. Default : No
  153. Forced : No

  154. Text #9
  155. ID : 11
  156. Format : UTF-8
  157. Codec ID : S_TEXT/UTF8
  158. Codec ID/Info : UTF-8 Plain Text
  159. Duration : 1 h 11 min
  160. Bit rate : 35 b/s
  161. Count of elements : 689
  162. Stream size : 18.9 KiB (0%)
  163. Title : French
  164. Language : French
  165. Default : No
  166. Forced : No

  167. Text #10
  168. ID : 12
  169. Format : UTF-8
  170. Codec ID : S_TEXT/UTF8
  171. Codec ID/Info : UTF-8 Plain Text
  172. Duration : 1 h 11 min
  173. Bit rate : 35 b/s
  174. Count of elements : 689
  175. Stream size : 18.5 KiB (0%)
  176. Title : Malay
  177. Language : Malay
  178. Default : No
  179. Forced : No

  180. Text #11
  181. ID : 13
  182. Format : UTF-8
  183. Codec ID : S_TEXT/UTF8
  184. Codec ID/Info : UTF-8 Plain Text
  185. Duration : 1 h 11 min
  186. Bit rate : 42 b/s
  187. Count of elements : 524
  188. Stream size : 22.1 KiB (0%)
  189. Title : German
  190. Language : German
  191. Default : No
  192. Forced : No

  193. Text #12
  194. ID : 14
  195. Format : UTF-8
  196. Codec ID : S_TEXT/UTF8
  197. Codec ID/Info : UTF-8 Plain Text
  198. Duration : 1 h 11 min
  199. Bit rate : 35 b/s
  200. Count of elements : 688
  201. Stream size : 18.5 KiB (0%)
  202. Title : Brazilian Portuguese
  203. Language : Portuguese
  204. Default : No
  205. Forced : No

  206. Text #13
  207. ID : 15
  208. Format : UTF-8
  209. Codec ID : S_TEXT/UTF8
  210. Codec ID/Info : UTF-8 Plain Text
  211. Duration : 1 h 11 min
  212. Bit rate : 34 b/s
  213. Count of elements : 670
  214. Stream size : 18.2 KiB (0%)
  215. Title : Filipino
  216. Language : fil
  217. Default : No
  218. Forced : No

  219. Text #14
  220. ID : 16
  221. Format : UTF-8
  222. Codec ID : S_TEXT/UTF8
  223. Codec ID/Info : UTF-8 Plain Text
  224. Duration : 1 h 11 min
  225. Bit rate : 35 b/s
  226. Count of elements : 684
  227. Stream size : 18.5 KiB (0%)
  228. Title : Swedish
  229. Language : Swedish
  230. Default : No
  231. Forced : No

  232. Text #15
  233. ID : 17
  234. Format : UTF-8
  235. Codec ID : S_TEXT/UTF8
  236. Codec ID/Info : UTF-8 Plain Text
  237. Duration : 1 h 11 min
  238. Bit rate : 34 b/s
  239. Count of elements : 688
  240. Stream size : 18.1 KiB (0%)
  241. Title : Norwegian (Bokmål)
  242. Language : Norwegian Bokmal
  243. Default : No
  244. Forced : No

  245. Text #16
  246. ID : 18
  247. Format : UTF-8
  248. Codec ID : S_TEXT/UTF8
  249. Codec ID/Info : UTF-8 Plain Text
  250. Duration : 1 h 11 min
  251. Bit rate : 32 b/s
  252. Count of elements : 689
  253. Stream size : 17.3 KiB (0%)
  254. Title : Chinese (Traditional)
  255. Language : Chinese
  256. Default : No
  257. Forced : No

  258. Text #17
  259. ID : 19
  260. Format : UTF-8
  261. Codec ID : S_TEXT/UTF8
  262. Codec ID/Info : UTF-8 Plain Text
  263. Duration : 1 h 11 min
  264. Bit rate : 55 b/s
  265. Count of elements : 689
  266. Stream size : 29.1 KiB (0%)
  267. Title : Hebrew
  268. Language : Hebrew
  269. Default : No
  270. Forced : No

  271. Text #18
  272. ID : 20
  273. Format : UTF-8
  274. Codec ID : S_TEXT/UTF8
  275. Codec ID/Info : UTF-8 Plain Text
  276. Duration : 1 h 11 min
  277. Bit rate : 58 b/s
  278. Count of elements : 689
  279. Stream size : 30.5 KiB (0%)
  280. Title : Russian
  281. Language : Russian
  282. Default : No
  283. Forced : No

  284. Text #19
  285. ID : 21
  286. Format : UTF-8
  287. Codec ID : S_TEXT/UTF8
  288. Codec ID/Info : UTF-8 Plain Text
  289. Duration : 1 h 11 min
  290. Bit rate : 62 b/s
  291. Count of elements : 689
  292. Stream size : 32.8 KiB (0%)
  293. Title : Arabic
  294. Language : Arabic
  295. Default : No
  296. Forced : No

  297. Text #20
  298. ID : 22
  299. Format : UTF-8
  300. Codec ID : S_TEXT/UTF8
  301. Codec ID/Info : UTF-8 Plain Text
  302. Duration : 1 h 11 min
  303. Bit rate : 32 b/s
  304. Count of elements : 688
  305. Stream size : 17.2 KiB (0%)
  306. Title : Portuguese
  307. Language : Portuguese
  308. Default : No
  309. Forced : No

  310. Text #21
  311. ID : 23
  312. Format : UTF-8
  313. Codec ID : S_TEXT/UTF8
  314. Codec ID/Info : UTF-8 Plain Text
  315. Duration : 1 h 11 min
  316. Bit rate : 34 b/s
  317. Count of elements : 687
  318. Stream size : 18.0 KiB (0%)
  319. Title : Italian
  320. Language : Italian
  321. Default : No
  322. Forced : No

  323. Text #22
  324. ID : 24
  325. Format : UTF-8
  326. Codec ID : S_TEXT/UTF8
  327. Codec ID/Info : UTF-8 Plain Text
  328. Duration : 1 h 11 min
  329. Bit rate : 32 b/s
  330. Count of elements : 688
  331. Stream size : 17.3 KiB (0%)
  332. Title : Polish
  333. Language : Polish
  334. Default : No
  335. Forced : No

  336. Text #23
  337. ID : 25
  338. Format : UTF-8
  339. Codec ID : S_TEXT/UTF8
  340. Codec ID/Info : UTF-8 Plain Text
  341. Duration : 1 h 9 min
  342. Bit rate : 48 b/s
  343. Count of elements : 788
  344. Stream size : 24.5 KiB (0%)
  345. Title : Castilian [SDH]
  346. Language : Spanish
  347. Default : No
  348. Forced : No

  349. Text #24
  350. ID : 26
  351. Format : UTF-8
  352. Codec ID : S_TEXT/UTF8
  353. Codec ID/Info : UTF-8 Plain Text
  354. Duration : 1 h 11 min
  355. Bit rate : 93 b/s
  356. Count of elements : 689
  357. Stream size : 49.0 KiB (0%)
  358. Title : Tamil
  359. Language : Tamil
  360. Default : No
  361. Forced : No

  362. Text #25
  363. ID : 27
  364. Format : UTF-8
  365. Codec ID : S_TEXT/UTF8
  366. Codec ID/Info : UTF-8 Plain Text
  367. Duration : 1 h 11 min
  368. Bit rate : 36 b/s
  369. Count of elements : 689
  370. Stream size : 19.0 KiB (0%)
  371. Title : Chinese (Simplified)
  372. Language : Chinese
  373. Default : No
  374. Forced : No

  375. Text #26
  376. ID : 28
  377. Format : UTF-8
  378. Codec ID : S_TEXT/UTF8
  379. Codec ID/Info : UTF-8 Plain Text
  380. Duration : 1 h 11 min
  381. Bit rate : 34 b/s
  382. Count of elements : 678
  383. Stream size : 18.0 KiB (0%)
  384. Title : Dutch
  385. Language : Dutch
  386. Default : No
  387. Forced : No

  388. Text #27
  389. ID : 29
  390. Format : UTF-8
  391. Codec ID : S_TEXT/UTF8
  392. Codec ID/Info : UTF-8 Plain Text
  393. Duration : 1 h 11 min
  394. Bit rate : 34 b/s
  395. Count of elements : 688
  396. Stream size : 18.2 KiB (0%)
  397. Title : Finnish
  398. Language : Finnish
  399. Default : No
  400. Forced : No

  401. Text #28
  402. ID : 30
  403. Format : UTF-8
  404. Codec ID : S_TEXT/UTF8
  405. Codec ID/Info : UTF-8 Plain Text
  406. Duration : 1 h 11 min
  407. Bit rate : 90 b/s
  408. Count of elements : 689
  409. Stream size : 47.6 KiB (0%)
  410. Title : Telugu
  411. Language : Telugu
  412. Default : No
  413. Forced : No

  414. Menu
  415. 00:00:00.000 : en:Amazon Original
  416. 00:00:05.000 : en:Scene 2
  417. 00:01:58.000 : en:Title Sequence
  418. 00:02:10.000 : en:Scene 4
  419. 00:04:17.000 : en:Scene 5
  420. 00:06:19.000 : en:Scene 6
  421. 00:07:39.000 : en:Scene 7
  422. 00:09:43.000 : en:Scene 8
  423. 00:12:42.000 : en:Scene 9
  424. 00:13:24.000 : en:Scene 10
  425. 00:14:54.000 : en:Scene 11
  426. 00:17:21.000 : en:Scene 12
  427. 00:18:27.000 : en:Scene 13
  428. 00:20:34.000 : en:Scene 14
  429. 00:22:57.000 : en:Scene 15
  430. 00:25:32.000 : en:Scene 16
  431. 00:26:55.000 : en:Scene 17
  432. 00:28:02.000 : en:Scene 18
  433. 00:30:49.000 : en:Scene 19
  434. 00:35:04.000 : en:Scene 20
  435. 00:37:28.000 : en:Scene 21
  436. 00:40:48.000 : en:Scene 22
  437. 00:41:36.000 : en:Scene 23
  438. 00:43:32.000 : en:Scene 24
  439. 00:46:12.000 : en:Scene 25
  440. 00:48:21.000 : en:Scene 26
  441. 00:49:43.000 : en:Scene 27
  442. 00:51:35.000 : en:Scene 28
  443. 00:53:27.000 : en:Scene 29
  444. 00:54:57.000 : en:Scene 30
  445. 00:56:04.000 : en:Scene 31
  446. 00:57:56.000 : en:Scene 32
  447. 00:59:31.000 : en:Scene 33
  448. 01:00:22.000 : en:Scene 34
  449. 01:03:42.000 : en:Scene 35
  450. 01:06:13.000 : en:Scene 36
  451. 01:06:55.000 : en:Scene 37
  452. 01:08:21.000 : en:Scene 38
  453. 01:08:49.000 : en:Scene 39
  454. 01:09:59.000 : en:End Credits
复制代码

锡德 / 西德传 / 圣剑 / 万世英雄/熙德4k El.Cid.S01.SPANISH.2160p.AMZN.WEB-DL.x265.10bit.HDR10plus.DDP5.1.美剧下载

熙德4k El.Cid.S01.SPANISH.2160p.AMZN.WEB-DL.x265.10bit.HDR10plus.DDP5.1【31.04 GB】
[Hao4k]熙德4k El.Cid.S01.SPANISH.2160p.AMZN.WEB-DL.x265.10bit.HDR10plus.DDP5.1-i.torrent (78.48 KB)
回复

使用道具 举报

全部回复4

zjh1366530332 发表于 3 天前

zjh1366530332 沙发

3 天前

最早知道这个历史人物是在游戏帝国时代2的战役,现在有片子可以欣赏了
回复 支持 反对

使用道具 举报

chbo 发表于 3 天前

chbo 板凳

3 天前

感谢分享
回复 支持 反对

使用道具 举报

supervest 发表于 前天 22:19 Hao4K手机版

supervest 地板

前天 22:19

求字幕啊!
回复 支持 反对

使用道具 举报

辉少侠 发表于 昨天 21:42 Hao4K手机版

辉少侠 5#

昨天 21:42

请问怎样做任务赚金币
回复 支持 反对

使用道具 举报

   发表回复

您需要登录后才可以回帖 登录 | 立即注册

返回列表 本版积分规则

:
白银玩家
:
未填写

主题

帖子

积分995

图文推荐

  • 外挂字幕音轨与视频封装技术方法教程

    先说说我的心路历程,一切的开始是从寻找合适的播

  • 86寸仅售7999元?Redmi MAX 86寸测评

    估计大伙儿看到86英寸价格7999元就兴奋起来了,这

  • 教你怎么PC电脑正确播放4K HDR电影【potpla

    如果观看4K HDR视频和电影的时候,使用不正确的方

  • PC党到底有没有必要入手播放器?

    打个比方,我现在的电脑利用potplayer+lav+madvr

  • 刚买了个好东西:16T的单碟移动硬盘。

    刚买了个好东西:16T的单碟移动硬盘。中亚上买的

  • 在线客服

  • 返回顶部