微博 微信

Hao4K影音

[字幕音轨相关] Dolby Surround EX 音轨求解

2021-2-26 20:35:24 5934 4 |只看大图 回帖奖励 |倒序浏览 |阅读模式

糖王 楼主

2021-2-26 07:45:39

各位大神好,小白求问。
( x; _$ G4 S" n( z- w: P. f/ A  ]' ^" i9 E4 s) P: M5 I2 m4 G+ i
下载了一部蓝光原盘BDISO,在自己打算混流封装mkv时,发现了一条在potplayer里没有出现的音轨。
6 C2 }! M* K) `( G* y! `1 q" C. H3 }/ O6 k5 c; s
potplayer显示有两条音轨,一个是TrueHD 96000Hz的6声道,还有一个AC3 48000Hz 640kbps 6声道。
" O) J; ?+ o. g) E+ _! f! y/ ~" {' ^! y3 R
但MKVToolNix解析后多了一个格式为 AC-3 Dolby Surround EX的音轨,也是48000Hz 640kbps 6声道。
3 s& ^  _; ~0 I' D: ?4 d
2 |! s3 h5 a1 v在我重新混流后,potplayer也识别了出来,但我自己听起来原本就有的AC3音轨和这条多出来的AC-3 Dolby Surround EX音轨好像也没有什么区别。
' |2 M  w# w# B3 k! |. b8 [7 f; a; ?# e6 Y8 H
百度了一下,也没有搞明白。在这里请大神解惑。
& }: k8 @. Z# o2 k1 o6 \: M0 r
6 j* _* F" }- T) X7 q& I

MKVToolNix 解析格式

MKVToolNix 解析格式
7 s; X/ A! A/ p) M% Q( H
! M0 b8 @% B4 E9 @/ z
上图是MKVToolNix解析出的视频格式,选中的就是隐藏的音轨。5 U) _1 `3 `5 |% q/ _: R' C
' {% g9 U0 N# U# X! Z7 q& i6 R
下面是从potplayer里读取的信息,音轨就只有两条。7 J& g/ R. ^* z) t6 D) X  T
6 {( W& k$ q/ x$ x& y
  1. General" E" x! f4 {# ~# Q
  2. ID                             : 0 (0x0)
    : X9 f+ E: W" N. K
  3. Complete name                  : D:\00003.m2ts, N9 W3 x1 N/ p' _- C" e7 @6 z
  4. Format                         : BDAV& k2 R& s) t3 G" g3 U
  5. Format/Info                    : Blu-ray Video
    4 @* Q* R0 j, g- X
  6. File size                      : 40.4 GiB
    : O% i* g# @! z% @7 @) C+ L
  7. Duration                       : 2 h 14 min
    % L2 X" V$ p. o$ c5 I% p- ~
  8. Overall bit rate mode          : Variable+ ]0 x7 a, x" b* ^) p' ?
  9. Overall bit rate               : 43.0 Mb/s7 b& J/ u/ D' q/ V2 A  D6 {+ x; _3 m
  10. Maximum Overall bit rate       : 48.0 Mb/s6 }" x0 B1 m% Y" q

  11. 2 U! p. B. I0 Q) b/ d- d. _
  12. Video
    ; R3 Q8 z% X, P; L& V
  13. ID                             : 4113 (0x1011)
    6 Q2 s1 m& h: v1 d5 c, T
  14. Menu ID                        : 1 (0x1)* k/ B9 x) S* T) w
  15. Format                         : AVC) h. \! p8 m$ J
  16. Format/Info                    : Advanced Video Codec
    ' ^4 }0 G( o, S4 S' S' r1 s5 |
  17. Format profile                 : High@L4.1# K  T7 i2 V* f8 s1 j
  18. Format settings                : CABAC / 4 Ref Frames3 ~; P# h6 p# s; v& c5 g
  19. Format settings, CABAC         : Yes
    8 G  R3 ?% j2 L; |
  20. Format settings, Reference fra : 4 frames  R# I, E) M4 }6 l
  21. Codec ID                       : 27, g, w8 c* D5 A2 R: H
  22. Duration                       : 2 h 14 min
    % h  p+ W7 C7 g* m: @: E
  23. Bit rate mode                  : Variable
    3 m" n/ d7 v& J, U% e0 V
  24. Bit rate                       : 40.0 Mb/s& h9 a) \! ^9 ^8 H+ R1 {' I0 U
  25. Maximum bit rate               : 37.0 Mb/s
    , R, V7 V/ i4 ^0 c5 Y
  26. Width                          : 1 920 pixels
    ! h0 m* b  Z! D  h& K9 n- O
  27. Height                         : 1 080 pixels
      j6 o0 F1 |) j$ y, W. d$ {. O* Y
  28. Display aspect ratio           : 16:9% l' S6 ~# N) L2 T6 \$ w& t4 G' u
  29. Frame rate                     : 24.000 FPS( C7 t$ e# S  y
  30. Color space                    : YUV. Y- v+ C7 j: |6 m7 [6 i
  31. Chroma subsampling             : 4:2:0
    / N0 @$ ^& V1 r; y) l
  32. Bit depth                      : 8 bits& p* B! `7 I+ q; e5 B$ k5 z
  33. Scan type                      : Progressive  n, @1 T. G" l5 Q) w8 n" {  n
  34. Bits/(Pixel*Frame)             : 0.804
    6 o: T# T6 P% b' X% `5 [
  35. Stream size                    : 37.5 GiB (93%)% y" R6 m% s; @3 Y

  36. 9 Q! z# s% D3 C
  37. Audio #1$ x& {/ b% H2 X( G, k  d
  38. ID                             : 4352 (0x1100)/ W1 _+ Q. @! a  R- a0 ?, v+ v' d5 F0 x
  39. Menu ID                        : 1 (0x1)
      t; X# x" W$ u) D$ j# g( U. E
  40. Format                         : AC-3) c& _1 _2 G: m3 H2 ]3 G* D0 j
  41. Format/Info                    : Audio Coding 3; Q$ l4 L3 n; F% M: l3 U/ h
  42. Commercial name                : Dolby Digital
    # z: h" N( q. Z5 n+ k& F/ q
  43. Muxing mode                    : Stream extension
    , k% S, E7 c8 e
  44. Codec ID                       : 131
    5 B9 N2 ~  x+ K# s3 L
  45. Duration                       : 2 h 14 min# q, N. }- b0 p& N% t6 y
  46. Bit rate mode                  : Variable; f* f5 B! R/ N% [6 Q0 h! G" l
  47. Bit rate                       : 640 kb/s
    ' V, D& k& l( v, b& Z7 X6 q
  48. Maximum bit rate               : 4 518 kb/s
    : _- s" ?* s, }6 B( K
  49. Channel(s)                     : 6 channels+ g& n" R0 x1 W1 B5 }
  50. Channel layout                 : L R C LFE Ls Rs! q( ^8 c' O* `( U) d
  51. Sampling rate                  : 96.0 kHz / 48.0 kHz
    6 C6 x2 y9 q; u3 \" v: g
  52. Frame rate                     : 31.250 FPS (1536 SPF)
    5 ^% }% D. E; U2 @1 m
  53. Compression mode               : Lossy
    # T: q, s6 s7 k  a% ?
  54. Stream size                    : 615 MiB (1%)
    1 s# V% D6 t- V" @0 T& @* w6 Q- `
  55. Service kind                   : Complete Main
    6 A+ Z9 X3 `! |' [3 y

  56. : v! f# Z! {9 t" i3 A( J# e% ?9 G
  57. Audio #2) c. @1 E  d# ~1 O8 s
  58. ID                             : 4353 (0x1101)
    ( m- j6 p3 b3 Y+ |+ t4 c
  59. Menu ID                        : 1 (0x1)
    ' _" L, P. L" T0 I, c4 m- E/ G
  60. Format                         : AC-3
    / w8 v; O5 s0 O5 _( v
  61. Format/Info                    : Audio Coding 3+ G+ `; h* A/ l( a
  62. Commercial name                : Dolby Digital
    2 T" b" A  |/ v; [
  63. Codec ID                       : 129
    & a* Y, l( v! ^8 ?
  64. Duration                       : 2 h 14 min
    ( |5 v9 `' z8 N2 O& K9 |+ o
  65. Bit rate mode                  : Constant" {, w; O) P2 P; K) j7 u; T
  66. Bit rate                       : 640 kb/s+ t+ Q, c) L; N8 i. f$ o, z8 N# [
  67. Channel(s)                     : 6 channels$ p1 @& M) b. G4 t& [+ M& a; ?
  68. Channel layout                 : L R C LFE Ls Rs
    + v+ B: K# ~# w/ S( {8 c
  69. Sampling rate                  : 48.0 kHz. c7 U8 Q5 ]7 j8 i+ ^
  70. Frame rate                     : 31.250 FPS (1536 SPF)
    - y; y% h& r# `; D- i
  71. Compression mode               : Lossy$ g/ l: [3 C4 y7 ~! H" |- p
  72. Stream size                    : 615 MiB (1%)
    $ k- O* i0 F9 W9 l; ?
  73. Service kind                   : Complete Main: x4 H/ G! g& K  J4 l
  74. , _, P! J3 j# i+ j
  75. Text #18 N/ ^2 \" w7 L* p* x& Z4 h' v
  76. ID                             : 4608 (0x1200)
    5 l) G; S7 T& @3 I, M
  77. Menu ID                        : 1 (0x1)# F5 E' Q) J7 A  i* M" t5 o5 q
  78. Format                         : PGS
    ) v* r1 e, S  G( w5 Z& A
  79. Codec ID                       : 144* t: t! [. W1 E  ^# E4 j

  80. ) G. R% R' b! E5 S2 N% B! L- \8 I
  81. Text #2
    & G$ }3 i) b9 s: B8 [5 n
  82. ID                             : 4609 (0x1201)
    , t7 u& k8 A/ I) ?* t
  83. Menu ID                        : 1 (0x1)
    ; L5 f1 \2 ^6 Z8 h. H- |& u9 W
  84. Format                         : PGS
    , E) F$ Z# i" s6 L  @: S! e/ b" ~8 d0 k
  85. Codec ID                       : 144
      J4 i, S3 {' H+ U- t
  86. : s: u- J/ ?) ]' o9 v% C) b
  87. Text #3, |) \- q+ W8 l! [) f8 v  Z6 y
  88. ID                             : 4610 (0x1202); U; }9 G+ V" q
  89. Menu ID                        : 1 (0x1)7 t) q; ?" Y* V/ p- q
  90. Format                         : PGS* |! v. w3 K0 `! p' }3 o: b
  91. Codec ID                       : 144, t2 T0 f( u# E) W
  92. ( ~' m  m" ?; D7 U$ z" J4 y5 O9 q8 Q" h
复制代码
7 k- b8 F! I3 R2 R' S. Z
回复

使用道具 举报

全部回复4

糖王 发表于 2021-2-26 09:29:31

糖王 沙发

2021-2-26 09:29:31

最新发现,把混流后potplayer识别为3条音轨的文件,放到家里sharp电视上播放,只能识别出2条音轨。越来越疑惑。。。
回复 支持 反对

使用道具 举报

adansxing 发表于 2021-2-26 11:09:03 Hao4K手机版

adansxing 板凳

2021-2-26 11:09:03

杜比环绕音轨
回复 支持 反对

使用道具 举报

goochenhui 发表于 2021-2-26 16:20:41

goochenhui 地板

2021-2-26 16:20:41

同问。。。
回复 支持 反对

使用道具 举报

糖王 发表于 2021-2-26 20:35:24

糖王 5#

2021-2-26 20:35:24

adansxing 发表于 2021-2-26 11:09
2 ?+ A  X8 q5 X& h. k# y! \杜比环绕音轨

' {6 k) S1 Z' ?3 p但为什么这音轨会隐藏呢
回复 支持 反对

使用道具 举报

   发表回复

您需要登录后才可以回帖 登录 | 立即注册

返回列表 本版积分规则

:
新手上路
:
未填写

主题

帖子

积分47

图文推荐

  • 【已售】出售115永久皇冠VIP

    115网盘: 超大空间、高速传输、200G大文

  • 出开博尔Q20PLUS+戴尔UP2718q hdr1000显示

    设备升级了,转让纯一手开博尔Q20PLUS 4K硬盘播放

  • 出99新的Xbox one X港服,只买了两个月寻有

    只买了两个月的Xbox one X港服,寻有缘人,拿回来

  • (已出,谢谢)出WD 8T紫盘,带6.6T资源。

    已出,谢谢关注! ======================

  • 4K原盘900余部,顶级蓝光影视剧万余部,海

    感谢Hao4k专业平台的支持!个人喜爱影视剧收藏,

  • 在线客服

  • 返回顶部