微博 微信

Hao4K影音

电影频道
电影封面:
片  名: 你好布拉德4k
电影分类: 剧情 喜剧 
国  家: 美国 
年  代: 2017年
分 辨 率: 4K(3840x2160)
电影格式: MKV|REMUX 
画质标准: HDR10 
音质编码: DTS-HD Master Audio 
电影声道: 5.1声道 
帧数/FPS: 23.976 帧
电影语言: 英文原版 
资源大小: 13.72 GB
导  演: 麦克·怀特
豆瓣评分: 7.8 分
中文字幕: -
剧情简介: 布拉德(本·斯蒂勒 Ben Stiller 饰)一直以来都是一名坚定的理想主义者,如今,他和妻子梅兰妮(珍娜·费舍 Jenna Fischer 饰)共同抚养着儿子特洛伊(奥斯汀·艾布拉姆斯 Austin Abrams)饰,与此同时,他还在经营着一家非营利性的组织,该组织专门在有需要的人和资本家之间牵线搭桥,帮助这些人获得资本的支持。
  某日,布拉德开始审视自己的这大半辈子,忽然产生了自己一文不值的感觉。他觉得他这么多年来所有的理念,所做出的的全部努力都没有任何的意义。他不能给人带来实质性的帮助,同时也无法给家人带来更优渥的生活条件,而和他同龄的那些大学同学们现在都成为了各领域内的中坚分子。布拉德的整个人生都被自己否定了。
人生剩利组(台) / 布拉德的中年危机/你好布拉德4k Brads.Status.2017.2160p.AMZN.WEB-DL.x265.10bit.HDR10Plus.DTS-HD.MA.5.1.电影信息
  1. Video
  2. ID : 1
  3. Format : HEVC
  4. Format/Info : High Efficiency Video Coding
  5. Format profile : Main 10@L5@Main
  6. HDR format : SMPTE ST 2094 App 4, Version 1, HDR10+ Profile B compatible
  7. Codec ID : V_MPEGH/ISO/HEVC
  8. Duration : 1 h 41 min
  9. Bit rate : 14.7 Mb/s
  10. Width : 3 840 pixels
  11. Height : 1 920 pixels
  12. Display aspect ratio : 2.000
  13. Frame rate mode : Constant
  14. Frame rate : 23.976 (24000/1001) FPS
  15. Color space : YUV
  16. Chroma subsampling : 4:2:0
  17. Bit depth : 10 bits
  18. Bits/(Pixel*Frame) : 0.083
  19. Stream size : 10.5 GiB (76%)
  20. Default : Yes
  21. Forced : No
  22. Color range : Limited
  23. Color primaries : BT.2020
  24. Transfer characteristics : PQ
  25. Matrix coefficients : BT.2020 non-constant
  26. Mastering display color primaries : Display P3
  27. Mastering display luminance : min: 0.0001 cd/m2, max: 1000 cd/m2
  28. Maximum Content Light Level : 889 cd/m2
  29. Maximum Frame-Average Light Level : 265 cd/m2

  30. Audio #1
  31. ID : 2
  32. Format : DTS XLL
  33. Format/Info : Digital Theater Systems
  34. Commercial name : DTS-HD Master Audio
  35. Codec ID : A_DTS
  36. Duration : 1 h 41 min
  37. Bit rate mode : Variable
  38. Bit rate : 3 927 kb/s
  39. Channel(s) : 6 channels
  40. Channel layout : C L R Ls Rs LFE
  41. Sampling rate : 48.0 kHz
  42. Frame rate : 93.750 FPS (512 SPF)
  43. Bit depth : 24 bits
  44. Compression mode : Lossless
  45. Delay relative to video : 2 ms
  46. Stream size : 2.80 GiB (20%)
  47. Title : DTS-HD MA 5.1
  48. Language : English
  49. Default : Yes
  50. Forced : No

  51. Audio #2
  52. ID : 3
  53. Format : E-AC-3
  54. Format/Info : Enhanced AC-3
  55. Commercial name : Dolby Digital Plus
  56. Codec ID : A_EAC3
  57. Duration : 1 h 41 min
  58. Bit rate mode : Constant
  59. Bit rate : 640 kb/s
  60. Channel(s) : 6 channels
  61. Channel layout : L R C LFE Ls Rs
  62. Sampling rate : 48.0 kHz
  63. Frame rate : 31.250 FPS (1536 SPF)
  64. Compression mode : Lossy
  65. Stream size : 467 MiB (3%)
  66. Title : DDP 5.1
  67. Language : English
  68. Service kind : Complete Main
  69. Default : No
  70. Forced : No

  71. Text #1
  72. ID : 4
  73. Format : UTF-8
  74. Codec ID : S_TEXT/UTF8
  75. Codec ID/Info : UTF-8 Plain Text
  76. Duration : 1 h 40 min
  77. Bit rate : 74 b/s
  78. Count of elements : 1796
  79. Stream size : 54.5 KiB (0%)
  80. Title : English
  81. Language : English
  82. Default : Yes
  83. Forced : No

  84. Text #2
  85. ID : 5
  86. Format : UTF-8
  87. Codec ID : S_TEXT/UTF8
  88. Codec ID/Info : UTF-8 Plain Text
  89. Duration : 1 h 40 min
  90. Bit rate : 79 b/s
  91. Count of elements : 1967
  92. Stream size : 58.3 KiB (0%)
  93. Title : English [SDH]
  94. Language : English
  95. Default : No
  96. Forced : No

  97. Text #3
  98. ID : 6
  99. Format : UTF-8
  100. Codec ID : S_TEXT/UTF8
  101. Codec ID/Info : UTF-8 Plain Text
  102. Duration : 1 h 40 min
  103. Bit rate : 61 b/s
  104. Count of elements : 1275
  105. Stream size : 45.4 KiB (0%)
  106. Title : French
  107. Language : French
  108. Default : No
  109. Forced : No

  110. Text #4
  111. ID : 7
  112. Format : UTF-8
  113. Codec ID : S_TEXT/UTF8
  114. Codec ID/Info : UTF-8 Plain Text
  115. Duration : 1 h 40 min
  116. Bit rate : 70 b/s
  117. Count of elements : 1285
  118. Stream size : 51.7 KiB (0%)
  119. Title : Italian
  120. Language : Italian
  121. Default : No
  122. Forced : No

  123. Menu
  124. 00:00:00.000 : en:Studio Logos
  125. 00:00:41.000 : en:Brad compares himself to his friends
  126. 00:06:45.000 : en:Brad and Troy begin their trip
  127. 00:13:41.000 : en:Brad reflects on his decisions
  128. 00:19:08.000 : en:Troy thinks he might get into Harvard
  129. 00:22:37.000 : en:Brad reflects on raising Troy
  130. 00:25:13.000 : en:Troy arrives for his Harvard interview
  131. 00:30:07.000 : en:Brad tries to call Craig
  132. 00:38:48.000 : en:Craig connects with Brad
  133. 00:48:16.000 : en:Brad remembers his college idealism
  134. 00:55:37.000 : en:Brad tells Ananya about his problems
  135. 01:03:18.000 : en:Troy has his interview with the Dean
  136. 01:10:40.000 : en:Brad looks for an old professor
  137. 01:14:24.000 : en:Brad meets Craig for dinner
  138. 01:26:33.000 : en:Brad meets Troy at the concert
  139. 01:31:00.000 : en:We're still alive
  140. 01:35:28.000 : en:End Credits
复制代码

人生剩利组(台) / 布拉德的中年危机/你好布拉德4k Brads.Status.2017.2160p.AMZN.WEB-DL.x265.10bit.HDR10Plus.DTS-HD.MA.5.1.电影下载

你好布拉德4k Brads.Status.2017.2160p.AMZN.WEB-DL.x265.10bit.HDR10Plus.DTS-HD.MA.5.1【13.72 GB】
[Hao4k]你好布拉德4k Brads.Status.2017.2160p.AMZN.WEB-DL.x265.10bit.HDR10Plus.DTS.torrent (69.17 KB, 售价: 2 K币)
回复

使用道具 举报

全部回复21

dyczw 发表于 2021-3-9 13:04:53

dyczw 沙发

2021-3-9 13:04:53

感谢分享,辛苦了!
回复 支持 反对

使用道具 举报

yale 发表于 2021-3-9 14:50:20

yale 板凳

2021-3-9 14:50:20

谢谢分享
回复 支持 反对

使用道具 举报

gdd22863 发表于 2021-3-9 15:59:05

gdd22863 地板

2021-3-9 15:59:05

支持了,感谢分享
回复 支持 反对

使用道具 举报

bbgrnnji 发表于 2021-3-9 17:02:34

bbgrnnji 5#

2021-3-9 17:02:34

评分不低,谢谢了
回复 支持 反对

使用道具 举报

BAEPUGE 发表于 2021-3-9 22:18:42

BAEPUGE 6#

2021-3-9 22:18:42


感谢分享,谢谢
回复 支持 反对

使用道具 举报

BAEPUGE 发表于 2021-3-9 22:18:46

BAEPUGE 7#

2021-3-9 22:18:46


感谢分享,谢谢
回复 支持 反对

使用道具 举报

mccliqiang 发表于 2021-3-9 22:44:04

mccliqiang 8#

2021-3-9 22:44:04

分数挺高的,下载看看
回复 支持 反对

使用道具 举报

phskytom 发表于 2021-3-10 08:20:47

phskytom 9#

2021-3-10 08:20:47

人到中年看看,感谢
回复 支持 反对

使用道具 举报

zx793365221 发表于 2021-3-10 09:19:25

zx793365221 10#

2021-3-10 09:19:25

有字幕吗
回复 支持 反对

使用道具 举报

panbell 发表于 2021-3-10 10:49:39

panbell 11#

2021-3-10 10:49:39

感谢分享,谢谢
回复 支持 反对

使用道具 举报

haolong 发表于 2021-3-10 12:27:55

haolong 12#

2021-3-10 12:27:55


感谢分享,谢谢
回复 支持 反对

使用道具 举报

andywjhh 发表于 2021-3-10 14:39:04

andywjhh 13#

2021-3-10 14:39:04

感谢分享,谢谢
回复 支持 反对

使用道具 举报

concord3303 发表于 2021-3-13 10:27:43

concord3303 14#

2021-3-13 10:27:43

感谢分享,辛苦了!
回复 支持 反对

使用道具 举报

N大大 发表于 2021-3-19 09:03:46

N大大 15#

2021-3-19 09:03:46

谢谢分享啊。
回复 支持 反对

使用道具 举报

testAA 发表于 2021-3-21 01:08:09

testAA 16#

2021-3-21 01:08:09

我超喜欢这个男演员,感谢分享和他有关的电影!
回复 支持 反对

使用道具 举报

LvWADE 发表于 2021-3-24 11:01:02

LvWADE 17#

2021-3-24 11:01:02

感谢分享
回复 支持 反对

使用道具 举报

panbell 发表于 2021-3-24 11:57:38

panbell 18#

2021-3-24 11:57:38

谢谢发布佳片。
回复 支持 反对

使用道具 举报

   发表回复

您需要登录后才可以回帖 登录 | 立即注册

返回列表 本版积分规则

  • 在线客服

  • 返回顶部