微博 微信

Hao4K影音

电影频道
电影封面:
片  名: 寂静中的惊奇4k
电影分类: 剧情 
国  家: 美国 
年  代: 2017年
分 辨 率: 4K(3840x2160)
电影格式: MKV|REMUX 
画质标准: HDR10 
音质编码: DTS-HD Master Audio 
电影声道: 5.1声道 
帧数/FPS: 23.976 帧
电影语言: 中文繁体 英文原版 
资源大小: 14.10 GB
导  演: 托德·海因斯
豆瓣评分: 6.0 分
中文字幕: -
剧情简介: 托德·海因斯《寂静中的惊奇》将以半默片形式呈现。影片改编自同名小说,朱丽安·摩尔、米歇尔·威廉姆斯加盟。片中1927年部分的画面将以无声电影的形式呈现,还原一个真实的时代,堪称电影生涯中最有野心的作品。
奇光下的秘密(台) / 童幻逆缘(港)/寂静中的惊奇4k Wonderstruck.2017.2160p.AMZN.WEB-DL.x265.10bit.HDR10Plus.DTS-HD.MA.5.1.电影信息
  1. Video
  2. ID : 1
  3. Format : HEVC
  4. Format/Info : High Efficiency Video Coding
  5. Format profile : Main 10@L5@Main
  6. HDR format : SMPTE ST 2094 App 4, Version 1, HDR10+ Profile B compatible
  7. Codec ID : V_MPEGH/ISO/HEVC
  8. Duration : 1 h 55 min
  9. Bit rate : 15.0 Mb/s
  10. Width : 3 840 pixels
  11. Height : 1 600 pixels
  12. Display aspect ratio : 2.40:1
  13. Frame rate mode : Constant
  14. Frame rate : 23.976 (24000/1001) FPS
  15. Color space : YUV
  16. Chroma subsampling : 4:2:0
  17. Bit depth : 10 bits
  18. Bits/(Pixel*Frame) : 0.102
  19. Stream size : 12.1 GiB (86%)
  20. Default : Yes
  21. Forced : No
  22. Color range : Limited
  23. Color primaries : BT.2020
  24. Transfer characteristics : PQ
  25. Matrix coefficients : BT.2020 non-constant
  26. Mastering display color primaries : Display P3
  27. Mastering display luminance : min: 0.0001 cd/m2, max: 1000 cd/m2
  28. Maximum Content Light Level : 886 cd/m2
  29. Maximum Frame-Average Light Level : 295 cd/m2

  30. Audio #1
  31. ID : 2
  32. Format : DTS XLL
  33. Format/Info : Digital Theater Systems
  34. Commercial name : DTS-HD Master Audio
  35. Codec ID : A_DTS
  36. Duration : 1 h 55 min
  37. Bit rate mode : Variable
  38. Bit rate : 1 879 kb/s
  39. Channel(s) : 6 channels
  40. Channel layout : C L R Ls Rs LFE
  41. Sampling rate : 48.0 kHz
  42. Frame rate : 93.750 FPS (512 SPF)
  43. Bit depth : 16 bits
  44. Compression mode : Lossless
  45. Delay relative to video : 2 ms
  46. Stream size : 1.52 GiB (11%)
  47. Title : DTS-HD MA 5.1
  48. Language : English
  49. Default : Yes
  50. Forced : No

  51. Audio #2
  52. ID : 3
  53. Format : E-AC-3
  54. Format/Info : Enhanced AC-3
  55. Commercial name : Dolby Digital Plus
  56. Codec ID : A_EAC3
  57. Duration : 1 h 55 min
  58. Bit rate mode : Constant
  59. Bit rate : 640 kb/s
  60. Channel(s) : 6 channels
  61. Channel layout : L R C LFE Ls Rs
  62. Sampling rate : 48.0 kHz
  63. Frame rate : 31.250 FPS (1536 SPF)
  64. Compression mode : Lossy
  65. Stream size : 528 MiB (4%)
  66. Title : English
  67. Language : English
  68. Service kind : Complete Main
  69. Default : No
  70. Forced : No

  71. Text #1
  72. ID : 4
  73. Format : UTF-8
  74. Codec ID : S_TEXT/UTF8
  75. Codec ID/Info : UTF-8 Plain Text
  76. Duration : 1 h 54 min
  77. Bit rate : 23 b/s
  78. Count of elements : 893
  79. Stream size : 19.5 KiB (0%)
  80. Title : English [SDH]
  81. Language : English
  82. Default : Yes
  83. Forced : No

  84. Text #2
  85. ID : 5
  86. Format : UTF-8
  87. Codec ID : S_TEXT/UTF8
  88. Codec ID/Info : UTF-8 Plain Text
  89. Duration : 1 h 49 min
  90. Bit rate : 18 b/s
  91. Count of elements : 565
  92. Stream size : 14.8 KiB (0%)
  93. Title : Italian
  94. Language : Italian
  95. Default : No
  96. Forced : No

  97. Text #3
  98. ID : 6
  99. Format : UTF-8
  100. Codec ID : S_TEXT/UTF8
  101. Codec ID/Info : UTF-8 Plain Text
  102. Duration : 1 h 54 min
  103. Bit rate : 16 b/s
  104. Count of elements : 518
  105. Stream size : 14.0 KiB (0%)
  106. Title : Brazilian Portuguese
  107. Language : Portuguese
  108. Default : No
  109. Forced : No

  110. Text #4
  111. ID : 7
  112. Format : UTF-8
  113. Codec ID : S_TEXT/UTF8
  114. Codec ID/Info : UTF-8 Plain Text
  115. Duration : 1 h 54 min
  116. Bit rate : 18 b/s
  117. Count of elements : 563
  118. Stream size : 15.2 KiB (0%)
  119. Title : Japanese
  120. Language : Japanese
  121. Default : No
  122. Forced : No

  123. Text #5
  124. ID : 8
  125. Format : UTF-8
  126. Codec ID : S_TEXT/UTF8
  127. Codec ID/Info : UTF-8 Plain Text
  128. Duration : 1 h 54 min
  129. Bit rate : 17 b/s
  130. Count of elements : 604
  131. Stream size : 15.0 KiB (0%)
  132. Title : Portuguese
  133. Language : Portuguese
  134. Default : No
  135. Forced : No

  136. Text #6
  137. ID : 9
  138. Format : UTF-8
  139. Codec ID : S_TEXT/UTF8
  140. Codec ID/Info : UTF-8 Plain Text
  141. Duration : 1 h 54 min
  142. Bit rate : 31 b/s
  143. Count of elements : 519
  144. Stream size : 26.3 KiB (0%)
  145. Title : Hebrew
  146. Language : Hebrew
  147. Default : No
  148. Forced : No

  149. Text #7
  150. ID : 10
  151. Format : UTF-8
  152. Codec ID : S_TEXT/UTF8
  153. Codec ID/Info : UTF-8 Plain Text
  154. Duration : 1 h 54 min
  155. Bit rate : 18 b/s
  156. Count of elements : 656
  157. Stream size : 15.3 KiB (0%)
  158. Title : German
  159. Language : German
  160. Default : No
  161. Forced : No

  162. Text #8
  163. ID : 11
  164. Format : UTF-8
  165. Codec ID : S_TEXT/UTF8
  166. Codec ID/Info : UTF-8 Plain Text
  167. Duration : 1 h 48 min
  168. Bit rate : 28 b/s
  169. Count of elements : 640
  170. Stream size : 22.3 KiB (0%)
  171. Title : Arabic
  172. Language : Arabic
  173. Default : No
  174. Forced : No

  175. Text #9
  176. ID : 12
  177. Format : UTF-8
  178. Codec ID : S_TEXT/UTF8
  179. Codec ID/Info : UTF-8 Plain Text
  180. Duration : 1 h 48 min
  181. Bit rate : 21 b/s
  182. Count of elements : 679
  183. Stream size : 17.1 KiB (0%)
  184. Title : Indonesian
  185. Language : Indonesian
  186. Default : No
  187. Forced : No

  188. Text #10
  189. ID : 13
  190. Format : UTF-8
  191. Codec ID : S_TEXT/UTF8
  192. Codec ID/Info : UTF-8 Plain Text
  193. Duration : 1 h 54 min
  194. Bit rate : 33 b/s
  195. Count of elements : 696
  196. Stream size : 28.5 KiB (0%)
  197. Title : Russian
  198. Language : Russian
  199. Default : No
  200. Forced : No

  201. Text #11
  202. ID : 14
  203. Format : UTF-8
  204. Codec ID : S_TEXT/UTF8
  205. Codec ID/Info : UTF-8 Plain Text
  206. Duration : 1 h 49 min
  207. Bit rate : 16 b/s
  208. Count of elements : 566
  209. Stream size : 13.2 KiB (0%)
  210. Title : Croatian
  211. Language : Croatian
  212. Default : No
  213. Forced : No

  214. Text #12
  215. ID : 15
  216. Format : UTF-8
  217. Codec ID : S_TEXT/UTF8
  218. Codec ID/Info : UTF-8 Plain Text
  219. Duration : 1 h 54 min
  220. Bit rate : 19 b/s
  221. Count of elements : 687
  222. Stream size : 16.0 KiB (0%)
  223. Title : Malay
  224. Language : Malay
  225. Default : No
  226. Forced : No

  227. Text #13
  228. ID : 16
  229. Format : UTF-8
  230. Codec ID : S_TEXT/UTF8
  231. Codec ID/Info : UTF-8 Plain Text
  232. Duration : 1 h 54 min
  233. Bit rate : 16 b/s
  234. Count of elements : 556
  235. Stream size : 13.6 KiB (0%)
  236. Title : French
  237. Language : French
  238. Default : No
  239. Forced : No

  240. Text #14
  241. ID : 17
  242. Format : UTF-8
  243. Codec ID : S_TEXT/UTF8
  244. Codec ID/Info : UTF-8 Plain Text
  245. Duration : 1 h 54 min
  246. Bit rate : 22 b/s
  247. Count of elements : 698
  248. Stream size : 19.1 KiB (0%)
  249. Title : Korean
  250. Language : Korean
  251. Default : No
  252. Forced : No

  253. Text #15
  254. ID : 18
  255. Format : UTF-8
  256. Codec ID : S_TEXT/UTF8
  257. Codec ID/Info : UTF-8 Plain Text
  258. Duration : 1 h 54 min
  259. Bit rate : 13 b/s
  260. Count of elements : 432
  261. Stream size : 11.3 KiB (0%)
  262. Title : Slovenian
  263. Language : Slovenian
  264. Default : No
  265. Forced : No

  266. Text #16
  267. ID : 19
  268. Format : UTF-8
  269. Codec ID : S_TEXT/UTF8
  270. Codec ID/Info : UTF-8 Plain Text
  271. Duration : 1 h 49 min
  272. Bit rate : 20 b/s
  273. Count of elements : 630
  274. Stream size : 16.0 KiB (0%)
  275. Title : Spanish
  276. Language : Spanish
  277. Default : No
  278. Forced : No

  279. Text #17
  280. ID : 20
  281. Format : UTF-8
  282. Codec ID : S_TEXT/UTF8
  283. Codec ID/Info : UTF-8 Plain Text
  284. Duration : 1 h 54 min
  285. Bit rate : 17 b/s
  286. Count of elements : 699
  287. Stream size : 14.8 KiB (0%)
  288. Title : Chinese (Simplified)
  289. Language : Chinese
  290. Default : No
  291. Forced : No

  292. Text #18
  293. ID : 21
  294. Format : UTF-8
  295. Codec ID : S_TEXT/UTF8
  296. Codec ID/Info : UTF-8 Plain Text
  297. Duration : 1 h 48 min
  298. Bit rate : 15 b/s
  299. Count of elements : 420
  300. Stream size : 12.3 KiB (0%)
  301. Title : Dutch
  302. Language : Dutch
  303. Default : No
  304. Forced : No

  305. Text #19
  306. ID : 22
  307. Format : UTF-8
  308. Codec ID : S_TEXT/UTF8
  309. Codec ID/Info : UTF-8 Plain Text
  310. Duration : 1 h 54 min
  311. Bit rate : 17 b/s
  312. Count of elements : 700
  313. Stream size : 15.0 KiB (0%)
  314. Title : Chinese (Traditional)
  315. Language : Chinese
  316. Default : No
  317. Forced : No

  318. Text #20
  319. ID : 23
  320. Format : UTF-8
  321. Codec ID : S_TEXT/UTF8
  322. Codec ID/Info : UTF-8 Plain Text
  323. Duration : 1 h 54 min
  324. Bit rate : 17 b/s
  325. Count of elements : 650
  326. Stream size : 14.9 KiB (0%)
  327. Title : Polish
  328. Language : Polish
  329. Default : No
  330. Forced : No

  331. Text #21
  332. ID : 24
  333. Format : UTF-8
  334. Codec ID : S_TEXT/UTF8
  335. Codec ID/Info : UTF-8 Plain Text
  336. Duration : 1 h 54 min
  337. Bit rate : 18 b/s
  338. Count of elements : 706
  339. Stream size : 15.9 KiB (0%)
  340. Title : English
  341. Language : English
  342. Default : No
  343. Forced : No

  344. Text #22
  345. ID : 25
  346. Format : UTF-8
  347. Codec ID : S_TEXT/UTF8
  348. Codec ID/Info : UTF-8 Plain Text
  349. Duration : 1 h 49 min
  350. Bit rate : 18 b/s
  351. Count of elements : 501
  352. Stream size : 14.7 KiB (0%)
  353. Title : Swedish
  354. Language : Swedish
  355. Default : No
  356. Forced : No

  357. Text #23
  358. ID : 26
  359. Format : UTF-8
  360. Codec ID : S_TEXT/UTF8
  361. Codec ID/Info : UTF-8 Plain Text
  362. Duration : 1 h 48 min
  363. Bit rate : 40 b/s
  364. Count of elements : 575
  365. Stream size : 31.9 KiB (0%)
  366. Title : Thai
  367. Language : Thai
  368. Default : No
  369. Forced : No

  370. Text #24
  371. ID : 27
  372. Format : UTF-8
  373. Codec ID : S_TEXT/UTF8
  374. Codec ID/Info : UTF-8 Plain Text
  375. Duration : 1 h 49 min
  376. Bit rate : 18 b/s
  377. Count of elements : 501
  378. Stream size : 14.6 KiB (0%)
  379. Title : Danish
  380. Language : Danish
  381. Default : No
  382. Forced : No

  383. Menu
  384. 00:00:00.000 : en:Amazon Originals
  385. 00:00:30.000 : en:Ben has a tough night
  386. 00:02:12.000 : en:Memories never fade
  387. 00:05:53.000 : en:Rose spots her screen star on a magazine
  388. 00:07:50.000 : en:Ben has trouble to sleep
  389. 00:09:50.000 : en:Rose works on her scrapbook
  390. 00:11:10.000 : en:A wound that doesn't heal
  391. 00:13:22.000 : en:Rose goes alone to the movie theater
  392. 00:14:26.000 : en:A drawer full of memories
  393. 00:17:19.000 : en:Rose watches a movie
  394. 00:17:51.000 : en:The bookmark number
  395. 00:19:09.000 : en:A sad end for Rose
  396. 00:20:15.000 : en:Ben wakes up after the accident
  397. 00:23:03.000 : en:Rose gets in trouble at home
  398. 00:25:00.000 : en:Time for a change
  399. 00:29:25.000 : en:Ben starts his lonely journey
  400. 00:32:53.000 : en:Rose arrives in New York
  401. 00:35:42.000 : en:A strange new city
  402. 00:39:30.000 : en:Rose arrives at the Theater
  403. 00:44:25.000 : en:Ben searches for the bookstore
  404. 00:46:39.000 : en:Rose sets off again
  405. 00:47:56.000 : en:Ben follows Jamie and his dad
  406. 00:48:53.000 : en:A little hope at the Museum
  407. 00:52:51.000 : en:The connection between past and present
  408. 00:57:41.000 : en:The wolves from Ben's nightmare
  409. 01:01:17.000 : en:Rose tries to run away from the guard
  410. 01:02:15.000 : en:A new friendship blossoms
  411. 01:09:41.000 : en:Rose hides from the guards
  412. 01:12:11.000 : en:Ben and James explore the Museum
  413. 01:14:00.000 : en:Walter takes Rose to his office
  414. 01:14:37.000 : en:A clue about Ben's father
  415. 01:18:12.000 : en:A new friendship for Rose
  416. 01:19:53.000 : en:In the cabinet of wonders
  417. 01:24:19.000 : en:Rose sleeps in Walter's house
  418. 01:25:06.000 : en:Ben spots the bookstore
  419. 01:27:22.000 : en:When past and present merge
  420. 01:35:10.000 : en:Ben reads Rose's story
  421. 01:46:56.000 : en:Jamie finds his friend
  422. 01:50:06.000 : en:End Credits
复制代码

奇光下的秘密(台) / 童幻逆缘(港)/寂静中的惊奇4k Wonderstruck.2017.2160p.AMZN.WEB-DL.x265.10bit.HDR10Plus.DTS-HD.MA.5.1.电影下载

寂静中的惊奇4k Wonderstruck.2017.2160p.AMZN.WEB-DL.x265.10bit.HDR10Plus.DTS-HD.MA.5.1【14.10 GB】
[Hao4k]寂静中的惊奇4k Wonderstruck.2017.2160p.AMZN.WEB-DL.x265.10bit.HDR10Plus.D.torrent (71.08 KB, 售价: 2 K币)
回复

使用道具 举报

全部回复28

dyczw 发表于 2021-3-9 13:04:37

dyczw 沙发

2021-3-9 13:04:37

感谢分享,辛苦了。
回复 支持 反对

使用道具 举报

yale 发表于 2021-3-9 14:51:41

yale 板凳

2021-3-9 14:51:41

谢谢分享
回复 支持 反对

使用道具 举报

nhce8902 发表于 2021-3-9 16:56:38

nhce8902 地板

2021-3-9 16:56:38

堪称电影生涯中最有野心的作品
回复 支持 反对

使用道具 举报

yym4728 发表于 2021-3-9 19:49:26

yym4728 5#

2021-3-9 19:49:26


感谢分享,辛苦了。
回复 支持 反对

使用道具 举报

dragon_walk 发表于 2021-3-9 21:39:13

dragon_walk 6#

2021-3-9 21:39:13

多谢分享
回复 支持 反对

使用道具 举报

世爵39 发表于 2021-3-10 08:13:05

世爵39 7#

2021-3-10 08:13:05

为什么不上传7.1声???
回复 支持 反对

使用道具 举报

世爵39 发表于 2021-3-10 08:26:15

世爵39 8#

2021-3-10 08:26:15

堪称电影生涯中最有野心的作品,不错的
回复 支持 反对

使用道具 举报

dk30129 发表于 2021-3-10 08:33:18

dk30129 9#

2021-3-10 08:33:18

谢谢分享,顶你!!!
回复 支持 反对

使用道具 举报

世爵39 发表于 2021-3-10 09:01:45

世爵39 10#

2021-3-10 09:01:45

Thank you very much~hahaha~
回复 支持 反对

使用道具 举报

世爵39 发表于 2021-3-10 09:33:17

世爵39 11#

2021-3-10 09:33:17

字幕哪里有啊???
回复 支持 反对

使用道具 举报

panbell 发表于 2021-3-10 10:48:07

panbell 12#

2021-3-10 10:48:07

感谢分享,谢谢
回复 支持 反对

使用道具 举报

dlding 发表于 2021-3-10 10:59:18

dlding 13#

2021-3-10 10:59:18


感谢分享,谢谢
回复 支持 反对

使用道具 举报

yangly 发表于 2021-3-10 11:17:41

yangly 14#

2021-3-10 11:17:41

谢谢分享,顶你!!!
回复 支持 反对

使用道具 举报

月光麦田 发表于 2021-3-10 11:41:13

月光麦田 15#

2021-3-10 11:41:13

很值得行赏
回复 支持 反对

使用道具 举报

andywjhh 发表于 2021-3-10 14:42:20

andywjhh 16#

2021-3-10 14:42:20

感谢分享,谢谢
回复 支持 反对

使用道具 举报

zzszengzeng 发表于 2021-3-10 15:03:42

zzszengzeng 17#

2021-3-10 15:03:42

支持了,感谢分享
回复 支持 反对

使用道具 举报

epcan 发表于 2021-3-10 21:13:39

epcan 18#

2021-3-10 21:13:39

感谢分享
感谢分享
回复 支持 反对

使用道具 举报

   发表回复

您需要登录后才可以回帖 登录 | 立即注册

返回列表 本版积分规则

  • 在线客服

  • 返回顶部