微博 微信

Hao4K影音

电影频道
电影封面:
片  名: 圣诞前夜4k
电影分类: 喜剧 
国  家: 美国 
年  代: 2015年
分 辨 率: 4K(3840x2160)
电影格式: MKV|REMUX 
画质标准: HDR10 
音质编码: DTS-HD Master Audio 
电影声道: 5.1声道 
帧数/FPS: 23.976 帧
电影语言: 英文原版 
资源大小: 12.50 GB
导  演: 乔纳森·莱文
豆瓣评分: 6.1 分
中文字幕: -
剧情简介: 塞斯·罗根和约瑟夫·高登-莱维特再次联手[抗癌的我]导演乔纳森·莱文,合作[圣诞节](Xmas,暂译)。影片讲述三位发小在圣诞前夜,举办例行聚会的故事。
今夜玩到趴(台) / 昨夜 / 圣诞节 / 前一夜 / X-Mas/圣诞前夜4k The.Night.Before.2015.2160p.AMZN.WEB-DL.x265.10bit.HDR10Plus.DTS-HD.MA.5.1.电影信息
  1. D : 1
  2. Format : HEVC
  3. Format/Info : High Efficiency Video Coding
  4. Format profile : Main 10@L5@Main
  5. HDR format : SMPTE ST 2094 App 4, Version 1, HDR10+ Profile B compatible
  6. Codec ID : V_MPEGH/ISO/HEVC
  7. Duration : 1 h 41 min
  8. Bit rate : 14.8 Mb/s
  9. Width : 3 840 pixels
  10. Height : 1 600 pixels
  11. Display aspect ratio : 2.40:1
  12. Frame rate mode : Constant
  13. Frame rate : 23.976 (24000/1001) FPS
  14. Color space : YUV
  15. Chroma subsampling : 4:2:0
  16. Bit depth : 10 bits
  17. Bits/(Pixel*Frame) : 0.100
  18. Stream size : 10.4 GiB (84%)
  19. Default : Yes
  20. Forced : No
  21. Color range : Limited
  22. Color primaries : BT.2020
  23. Transfer characteristics : PQ
  24. Matrix coefficients : BT.2020 non-constant
  25. Mastering display color primaries : Display P3
  26. Mastering display luminance : min: 0.0050 cd/m2, max: 4000 cd/m2
  27. Maximum Content Light Level : 10000 cd/m2
  28. Maximum Frame-Average Light Level : 1229 cd/m2

  29. Audio #1
  30. ID : 2
  31. Format : DTS XLL
  32. Format/Info : Digital Theater Systems
  33. Commercial name : DTS-HD Master Audio
  34. Codec ID : A_DTS
  35. Duration : 1 h 41 min
  36. Bit rate mode : Variable
  37. Bit rate : 2 259 kb/s
  38. Channel(s) : 6 channels
  39. Channel layout : C L R Ls Rs LFE
  40. Sampling rate : 48.0 kHz
  41. Frame rate : 93.750 FPS (512 SPF)
  42. Bit depth : 16 bits
  43. Compression mode : Lossless
  44. Delay relative to video : 2 ms
  45. Stream size : 1.60 GiB (13%)
  46. Title : DTS-HD MA 5.1
  47. Language : English
  48. Default : Yes
  49. Forced : No

  50. Audio #2
  51. ID : 3
  52. Format : E-AC-3
  53. Format/Info : Enhanced AC-3
  54. Commercial name : Dolby Digital Plus
  55. Codec ID : A_EAC3
  56. Duration : 1 h 41 min
  57. Bit rate mode : Constant
  58. Bit rate : 640 kb/s
  59. Channel(s) : 6 channels
  60. Channel layout : L R C LFE Ls Rs
  61. Sampling rate : 48.0 kHz
  62. Frame rate : 31.250 FPS (1536 SPF)
  63. Compression mode : Lossy
  64. Stream size : 463 MiB (4%)
  65. Title : DDP 5.1
  66. Language : English
  67. Service kind : Complete Main
  68. Default : No
  69. Forced : No

  70. Text
  71. ID : 4
  72. Format : UTF-8
  73. Codec ID : S_TEXT/UTF8
  74. Codec ID/Info : UTF-8 Plain Text
  75. Duration : 1 h 34 min
  76. Bit rate : 100 b/s
  77. Count of elements : 2024
  78. Stream size : 69.6 KiB (0%)
  79. Title : SRT
  80. Language : English
  81. Default : Yes
  82. Forced : No

  83. Menu
  84. 00:00:00.000 : en:Chapter 01
  85. 00:05:22.489 : en:Chapter 02
  86. 00:12:32.293 : en:Chapter 03
  87. 00:18:37.158 : en:Chapter 04
  88. 00:25:17.850 : en:Chapter 05
  89. 00:31:52.828 : en:Chapter 06
  90. 00:40:32.972 : en:Chapter 07
  91. 00:47:15.207 : en:Chapter 08
  92. 00:54:29.850 : en:Chapter 09
  93. 01:01:07.289 : en:Chapter 10
  94. 01:06:11.593 : en:Chapter 11
  95. 01:12:09.951 : en:Chapter 12
  96. 01:18:04.054 : en:Chapter 13
  97. 01:23:55.822 : en:Chapter 14
  98. 01:29:39.833 : en:Chapter 15
  99. 01:34:52.604 : en:Chapter 16
复制代码

今夜玩到趴(台) / 昨夜 / 圣诞节 / 前一夜 / X-Mas/圣诞前夜4k The.Night.Before.2015.2160p.AMZN.WEB-DL.x265.10bit.HDR10Plus.DTS-HD.MA.5.1.电影下载

圣诞前夜4k The.Night.Before.2015.2160p.AMZN.WEB-DL.x265.10bit.HDR10Plus.DTS-HD.MA.5.1【12.50 GB】
[Hao4k]圣诞前夜 4k The.Night.Before.2015.2160p.AMZN.WEB-DL.x265.10bit.HDR10Plus..torrent (63.08 KB)
回复

使用道具 举报

全部回复27

dyczw 发表于 2021-3-9 13:04:14

dyczw 沙发

2021-3-9 13:04:14

感谢分享。辛苦了
回复 支持 反对

使用道具 举报

xxw8888 发表于 2021-3-9 14:35:26

xxw8888 板凳

2021-3-9 14:35:26

感谢无私分享。
回复 支持 反对

使用道具 举报

yale 发表于 2021-3-9 14:52:08

yale 地板

2021-3-9 14:52:08

谢谢分享
回复 支持 反对

使用道具 举报

highrpmclub 发表于 2021-3-9 15:18:21

highrpmclub 5#

2021-3-9 15:18:21

这个挺逗的确实,谢谢分享
回复 支持 反对

使用道具 举报

simon5152 发表于 2021-3-9 18:02:26

simon5152 6#

2021-3-9 18:02:26


感谢分享
感谢分享
回复 支持 反对

使用道具 举报

wjlwjl 发表于 2021-3-9 21:52:34 Hao4K手机版

wjlwjl 7#

2021-3-9 21:52:34

世界因你而精彩。
回复 支持 反对

使用道具 举报

BAEPUGE 发表于 2021-3-9 22:18:10

BAEPUGE 8#

2021-3-9 22:18:10


感谢分享,谢谢
回复 支持 反对

使用道具 举报

czx28867890 发表于 2021-3-9 23:22:19

czx28867890 9#

2021-3-9 23:22:19


谢谢分享,世界因你而精彩
回复 支持 反对

使用道具 举报

panbell 发表于 2021-3-10 10:46:42

panbell 10#

2021-3-10 10:46:42

感谢分享,谢谢
回复 支持 反对

使用道具 举报

Makoto8023 发表于 2021-3-10 12:10:42

Makoto8023 11#

2021-3-10 12:10:42

谢谢分享
回复 支持 反对

使用道具 举报

bbgrnnji 发表于 2021-3-10 13:12:12

bbgrnnji 12#

2021-3-10 13:12:12

谢谢楼主了
回复 支持 反对

使用道具 举报

andywjhh 发表于 2021-3-10 14:43:17

andywjhh 13#

2021-3-10 14:43:17

谢谢楼主了
回复 支持 反对

使用道具 举报

eontse 发表于 2021-3-10 16:08:07

eontse 14#

2021-3-10 16:08:07

感谢分享 谢谢!
回复 支持 反对

使用道具 举报

epcan 发表于 2021-3-10 21:13:17

epcan 15#

2021-3-10 21:13:17

感谢分享
感谢分享
回复 支持 反对

使用道具 举报

zjq2020 发表于 2021-3-10 22:37:35

zjq2020 16#

2021-3-10 22:37:35

非常感谢楼主的资源
回复 支持 反对

使用道具 举报

nhce8902 发表于 2021-3-11 09:34:41

nhce8902 17#

2021-3-11 09:34:41


非常感谢楼主的资源,好好看看
回复 支持 反对

使用道具 举报

王子831122 发表于 2021-3-12 14:44:51

王子831122 18#

2021-3-12 14:44:51

非常感谢楼主的资源
回复 支持 反对

使用道具 举报

   发表回复

您需要登录后才可以回帖 登录 | 立即注册

返回列表 本版积分规则

  • 在线客服

  • 返回顶部