微博 微信

Hao4K影音

电影频道
电影封面:
片  名: 星际旅行7:斗转星移4k
电影分类: 动作 科幻 惊悚 悬疑 
国  家: 美国 
年  代: 90年代
分 辨 率: 4K(3840x2160)
电影格式: MKV|REMUX 
画质标准: 其他 
音质编码: 其他AAC 
电影声道: 5.1声道 
帧数/FPS: 23.976 帧
电影语言: 英文原版 
资源大小: 7.2 GB
导  演: 大卫·卡森
豆瓣评分: 7.2 分
中文字幕: -
剧情简介: 寇克等人作为嘉宾乘新企业号试航,途中收到救援任务……而在另一时空,索伦博士正阴谋毁灭星球,攻击企业号。唯一能够帮助新船长皮卡特来阻止索伦的,只有销声匿迹了78年的寇克船长。
星际迷航7 / 星空奇遇记7:星空奇兵(港) / 星舰奇航记7:日换星移(台) / 星际争霸战7 / 星舰迷航记7 / Star Trek 7/星际旅行7:斗转星移4k Star Trek Generations 1994 2160p 2160p BluRay AI x265 HEVC 10bit AAC 5.1电影信息
  1. Video
  2. ID : 1
  3. Format : HEVC
  4. Format/Info : High Efficiency Video Coding
  5. Format profile : Main [email protected]@Main
  6. Codec ID : V_MPEGH/ISO/HEVC
  7. Duration : 1 h 57 min
  8. Bit rate : 6 001 kb/s
  9. Width : 3 808 pixels
  10. Height : 1 600 pixels
  11. Display aspect ratio : 2.40:1
  12. Frame rate mode : Constant
  13. Frame rate : 23.976 (24000/1001) FPS
  14. Color space : YUV
  15. Chroma subsampling : 4:2:0
  16. Bit depth : 10 bits
  17. Bits/(Pixel*Frame) : 0.041
  18. Stream size : 4.95 GiB (86%)
  19. Writing library : x265 3.2+9-971180b100f8:[Windows][GCC 9.2.0][64 bit] 10bit
  20. Encoding settings : cpuid=1111039 / frame-threads=3 / numa-pools=12 / wpp / no-pmode / no-pme / no-psnr / ssim / log-level=2 / input-csp=1 / input-res=3808x1600 / interlace=0 / total-frames=169737 / level-idc=0 / high-tier=1 / uhd-bd=0 / ref=4 / no-allow-non-conformance / no-repeat-headers / annexb / no-aud / no-hrd / info / hash=0 / no-temporal-layers / open-gop / min-keyint=23 / keyint=250 / gop-lookahead=0 / bframes=8 / b-adapt=2 / b-pyramid / bframe-bias=40 / rc-lookahead=80 / lookahead-slices=4 / scenecut=40 / radl=0 / no-splice / no-intra-refresh / ctu=64 / min-cu-size=8 / rect / no-amp / max-tu-size=32 / tu-inter-depth=1 / tu-intra-depth=1 / limit-tu=0 / rdoq-level=2 / dynamic-rd=0.00 / ssim-rd / signhide / no-tskip / nr-intra=0 / nr-inter=0 / constrained-intra / strong-intra-smoothing / max-merge=3 / limit-refs=3 / limit-modes / me=3 / subme=3 / merange=57 / temporal-mvp / no-frame-dup / no-hme / weightp / no-weightb / no-analyze-src-pics / deblock=0:0 / sao / no-sao-non-deblock / rd=4 / selective-sao=4 / early-skip / rskip / no-fast-intra / no-tskip-fast / no-cu-lossless / no-b-intra / splitrd-skip / rdpenalty=0 / psy-rd=2.45 / psy-rdoq=1.50 / no-rd-refine / no-lossless / cbqpoffs=0 / crqpoffs=0 / rc=abr / bitrate=6000 / qcomp=0.60 / qpstep=4 / stats-write=0 / stats-read=2 / cplxblur=20.0 / qblur=0.5 / ipratio=1.40 / pbratio=1.30 / aq-mode=3 / aq-strength=0.40 / cutree / zone-count=0 / no-strict-cbr / qg-size=32 / no-rc-grain / qpmax=69 / qpmin=0 / no-const-vbv / sar=0 / overscan=0 / videoformat=5 / range=0 / colorprim=2 / transfer=2 / colormatrix=2 / chromaloc=0 / display-window=0 / cll=0,0 / min-luma=0 / max-luma=1023 / log2-max-poc-lsb=8 / vui-timing-info / vui-hrd-info / slices=1 / no-opt-qp-pps / no-opt-ref-list-length-pps / multi-pass-opt-rps / scenecut-bias=0.05 / no-opt-cu-delta-qp / no-aq-motion / no-hdr / no-hdr-opt / no-dhdr10-opt / no-idr-recovery-sei / analysis-load / analysis-reuse-level=10 / scale-factor=0 / refine-intra=0 / refine-inter=0 / refine-mv=1 / refine-ctu-distortion=0 / limit-sao / ctu-info=0 / no-lowpass-dct / refine-analysis-type=0 / copy-pic=1 / max-ausize-factor=1.0 / no-dynamic-refine / no-single-sei / no-hevc-aq / no-svt / no-field / qp-adaptation-range=1.00
  21. Default : Yes
  22. Forced : No

  23. Audio #1
  24. ID : 2
  25. Format : AAC
  26. Format/Info : Advanced Audio Codec
  27. Format profile : LC
  28. Codec ID : A_AAC
  29. Duration : 1 h 57 min
  30. Bit rate : 437 kb/s
  31. Channel(s) : 6 channels
  32. Channel positions : Front: L C R, Side: L R, LFE
  33. Sampling rate : 48.0 kHz
  34. Frame rate : 46.875 FPS (1024 spf)
  35. Compression mode : Lossy
  36. Delay relative to video : 9 ms
  37. Stream size : 369 MiB (6%)
  38. Title : Surround 5.1
  39. Language : English
  40. Default : No
  41. Forced : No

  42. Audio #2
  43. ID : 3
  44. Format : AAC
  45. Format/Info : Advanced Audio Codec
  46. Format profile : LC
  47. Codec ID : A_AAC
  48. Duration : 1 h 57 min
  49. Bit rate : 100 kb/s
  50. Channel(s) : 2 channels
  51. Channel positions : Front: L R
  52. Sampling rate : 48.0 kHz
  53. Frame rate : 46.875 FPS (1024 spf)
  54. Compression mode : Lossy
  55. Delay relative to video : 9 ms
  56. Stream size : 84.8 MiB (1%)
  57. Language : German
  58. Default : No
  59. Forced : No

  60. Audio #3
  61. ID : 4
  62. Format : AAC
  63. Format/Info : Advanced Audio Codec
  64. Format profile : LC
  65. Codec ID : A_AAC
  66. Duration : 1 h 57 min
  67. Bit rate : 99.0 kb/s
  68. Channel(s) : 2 channels
  69. Channel positions : Front: L R
  70. Sampling rate : 48.0 kHz
  71. Frame rate : 46.875 FPS (1024 spf)
  72. Compression mode : Lossy
  73. Delay relative to video : 9 ms
  74. Stream size : 83.5 MiB (1%)
  75. Language : Italian
  76. Default : No
  77. Forced : No

  78. Audio #6
  79. ID : 7
  80. Format : AAC
  81. Format/Info : Advanced Audio Codec
  82. Format profile : HE-AAC / LC
  83. Codec ID : A_AAC
  84. Duration : 1 h 57 min
  85. Bit rate : 48.0 kb/s
  86. Channel(s) : 2 channels
  87. Channel positions : Front: L R
  88. Sampling rate : 48.0 kHz / 24.0 kHz
  89. Frame rate : 23.438 FPS (1024 spf)
  90. Compression mode : Lossy
  91. Delay relative to video : 31 ms
  92. Stream size : 40.4 MiB (1%)
  93. Title : Commentary by Writers Brannon Braga and Ronald D. Moore
  94. Language : English
  95. Default : No
  96. Forced : No

  97. Subtitle #1
  98. ID : 8
  99. Format : VobSub
  100. Muxing mode : zlib
  101. Codec ID : S_VOBSUB
  102. Codec ID/Info : Picture based subtitle format used on DVDs
  103. Duration : 1 h 54 min
  104. Bit rate : 3 764 b/s
  105. Count of elements : 784
  106. Stream size : 3.09 MiB (0%)
  107. Language : Arabic
  108. Default : No
  109. Forced : No

  110. Subtitle #2
  111. ID : 9
  112. Format : VobSub
  113. Muxing mode : zlib
  114. Codec ID : S_VOBSUB
  115. Codec ID/Info : Picture based subtitle format used on DVDs
  116. Duration : 1 h 54 min
  117. Bit rate : 6 716 b/s
  118. Count of elements : 783
  119. Stream size : 5.52 MiB (0%)
  120. Language : Danish
  121. Default : No
  122. Forced : No

  123. Subtitle #4
  124. ID : 11
  125. Format : VobSub
  126. Muxing mode : zlib
  127. Codec ID : S_VOBSUB
  128. Codec ID/Info : Picture based subtitle format used on DVDs
  129. Duration : 1 h 50 min
  130. Bit rate : 8 789 b/s
  131. Count of elements : 1031
  132. Stream size : 6.93 MiB (0%)
  133. Language : English
  134. Default : No
  135. Forced : No

  136. Subtitle #6
  137. ID : 13
  138. Format : VobSub
  139. Muxing mode : zlib
  140. Codec ID : S_VOBSUB
  141. Codec ID/Info : Picture based subtitle format used on DVDs
  142. Duration : 1 h 54 min
  143. Bit rate : 7 060 b/s
  144. Count of elements : 808
  145. Stream size : 5.80 MiB (0%)
  146. Language : French
  147. Default : No
  148. Forced : No

  149. Subtitle #8
  150. ID : 15
  151. Format : VobSub
  152. Muxing mode : zlib
  153. Codec ID : S_VOBSUB
  154. Codec ID/Info : Picture based subtitle format used on DVDs
  155. Duration : 1 h 57 min
  156. Bit rate : 6 272 b/s
  157. Count of elements : 787
  158. Stream size : 5.26 MiB (0%)
  159. Language : Italian
  160. Default : No
  161. Forced : No

  162. Subtitle #14
  163. ID : 21
  164. Format : VobSub
  165. Muxing mode : zlib
  166. Codec ID : S_VOBSUB
  167. Codec ID/Info : Picture based subtitle format used on DVDs
  168. Duration : 1 h 50 min
  169. Bit rate : 9 616 b/s
  170. Count of elements : 1186
  171. Stream size : 7.58 MiB (0%)
  172. Language : English
  173. Default : No
  174. Forced : No

  175. Subtitle #16
  176. ID : 23
  177. Format : VobSub
  178. Muxing mode : zlib
  179. Codec ID : S_VOBSUB
  180. Codec ID/Info : Picture based subtitle format used on DVDs
  181. Duration : 1 h 54 min
  182. Bit rate : 17.8 kb/s
  183. Count of elements : 1774
  184. Stream size : 14.5 MiB (0%)
  185. Language : English
  186. Default : No
  187. Forced : No

  188. Subtitle #21
  189. ID : 28
  190. Format : VobSub
  191. Muxing mode : zlib
  192. Codec ID : S_VOBSUB
  193. Codec ID/Info : Picture based subtitle format used on DVDs
  194. Duration : 1 h 53 min
  195. Bit rate : 20.0 kb/s
  196. Count of elements : 1964
  197. Stream size : 16.3 MiB (0%)
  198. Language : English
  199. Default : No
  200. Forced : No

  201. Subtitle #22
  202. ID : 29
  203. Format : VobSub
  204. Muxing mode : zlib
  205. Codec ID : S_VOBSUB
  206. Codec ID/Info : Picture based subtitle format used on DVDs
  207. Duration : 1 h 57 min
  208. Bit rate : 12.6 kb/s
  209. Count of elements : 1378
  210. Stream size : 10.6 MiB (0%)
  211. Language : Spanish
  212. Default : No
  213. Forced : No

  214. Subtitle #23
  215. ID : 30
  216. Format : VobSub
  217. Muxing mode : zlib
  218. Codec ID : S_VOBSUB
  219. Codec ID/Info : Picture based subtitle format used on DVDs
  220. Duration : 1 h 57 min
  221. Bit rate : 14.5 kb/s
  222. Count of elements : 1370
  223. Stream size : 12.2 MiB (0%)
  224. Language : French
  225. Default : No
  226. Forced : No

  227. Subtitle #24
  228. ID : 31
  229. Format : VobSub
  230. Muxing mode : zlib
  231. Codec ID : S_VOBSUB
  232. Codec ID/Info : Picture based subtitle format used on DVDs
  233. Duration : 1 h 57 min
  234. Bit rate : 14.5 kb/s
  235. Count of elements : 1383
  236. Stream size : 12.2 MiB (0%)
  237. Language : Italian
  238. Default : No
  239. Forced : No

  240. Subtitle #25
  241. ID : 32
  242. Format : VobSub
  243. Muxing mode : zlib
  244. Codec ID : S_VOBSUB
  245. Codec ID/Info : Picture based subtitle format used on DVDs
  246. Duration : 17 min 39 s
  247. Bit rate : 88 b/s
  248. Count of elements : 2
  249. Stream size : 11.5 KiB (0%)
  250. Language : German
  251. Default : No
  252. Forced : No

  253. Subtitle #26
  254. ID : 33
  255. Format : VobSub
  256. Muxing mode : zlib
  257. Codec ID : S_VOBSUB
  258. Codec ID/Info : Picture based subtitle format used on DVDs
  259. Duration : 17 min 39 s
  260. Bit rate : 88 b/s
  261. Count of elements : 2
  262. Stream size : 11.5 KiB (0%)
  263. Language : German
  264. Default : No
  265. Forced : No

  266. Subtitle #27
  267. ID : 34
  268. Format : VobSub
  269. Muxing mode : zlib
  270. Codec ID : S_VOBSUB
  271. Codec ID/Info : Picture based subtitle format used on DVDs
  272. Duration : 17 min 39 s
  273. Bit rate : 88 b/s
  274. Count of elements : 2
  275. Stream size : 11.4 KiB (0%)
  276. Language : Spanish
  277. Default : No
  278. Forced : No

  279. Subtitle #28
  280. ID : 35
  281. Format : VobSub
  282. Muxing mode : zlib
  283. Codec ID : S_VOBSUB
  284. Codec ID/Info : Picture based subtitle format used on DVDs
  285. Duration : 17 min 39 s
  286. Bit rate : 88 b/s
  287. Count of elements : 2
  288. Stream size : 11.4 KiB (0%)
  289. Language : Spanish
  290. Default : No
  291. Forced : No

  292. Subtitle #29
  293. ID : 36
  294. Format : VobSub
  295. Muxing mode : zlib
  296. Codec ID : S_VOBSUB
  297. Codec ID/Info : Picture based subtitle format used on DVDs
  298. Duration : 2 s 367 ms
  299. Bit rate : 12.5 kb/s
  300. Count of elements : 1
  301. Stream size : 3.62 KiB (0%)
  302. Language : French
  303. Default : No
  304. Forced : No

  305. Subtitle #30
  306. ID : 37
  307. Format : VobSub
  308. Muxing mode : zlib
  309. Codec ID : S_VOBSUB
  310. Codec ID/Info : Picture based subtitle format used on DVDs
  311. Duration : 2 s 367 ms
  312. Bit rate : 12.5 kb/s
  313. Count of elements : 1
  314. Stream size : 3.62 KiB (0%)
  315. Language : French
  316. Default : No
  317. Forced : No

  318. Subtitle #31
  319. ID : 38
  320. Format : VobSub
  321. Muxing mode : zlib
  322. Codec ID : S_VOBSUB
  323. Codec ID/Info : Picture based subtitle format used on DVDs
  324. Duration : 17 min 39 s
  325. Bit rate : 56 b/s
  326. Count of elements : 2
  327. Stream size : 7.33 KiB (0%)
  328. Language : Italian
  329. Default : No
  330. Forced : No

  331. Subtitle #32
  332. ID : 39
  333. Format : VobSub
  334. Muxing mode : zlib
  335. Codec ID : S_VOBSUB
  336. Codec ID/Info : Picture based subtitle format used on DVDs
  337. Duration : 17 min 39 s
  338. Bit rate : 56 b/s
  339. Count of elements : 2
  340. Stream size : 7.33 KiB (0%)
  341. Language : Italian
  342. Default : No
  343. Forced : No

  344. Subtitle #33
  345. ID : 40
  346. Format : UTF-8
  347. Codec ID : S_TEXT/UTF8
  348. Codec ID/Info : UTF-8 Plain Text
  349. Duration : 1 h 52 min
  350. Bit rate : 82 b/s
  351. Count of elements : 1037
  352. Stream size : 68.1 KiB (0%)
  353. Language : Persian
  354. Default : No
  355. Forced : No

  356. Subtitle #34
  357. ID : 41
  358. Format : UTF-8
  359. Codec ID : S_TEXT/UTF8
  360. Codec ID/Info : UTF-8 Plain Text
  361. Duration : 1 h 54 min
  362. Bit rate : 54 b/s
  363. Count of elements : 1034
  364. Stream size : 45.7 KiB (0%)
  365. Language : Indonesian
  366. Default : No
  367. Forced : No

  368. Subtitle #35
  369. ID : 42
  370. Format : UTF-8
  371. Codec ID : S_TEXT/UTF8
  372. Codec ID/Info : UTF-8 Plain Text
  373. Duration : 1 h 50 min
  374. Bit rate : 81 b/s
  375. Count of elements : 994
  376. Stream size : 65.5 KiB (0%)
  377. Language : Thai
  378. Default : No
  379. Forced : No

  380. Subtitle #36
  381. ID : 43
  382. Format : UTF-8
  383. Codec ID : S_TEXT/UTF8
  384. Codec ID/Info : UTF-8 Plain Text
  385. Duration : 1 h 52 min
  386. Bit rate : 72 b/s
  387. Count of elements : 1035
  388. Stream size : 59.5 KiB (0%)
  389. Language : Vietnamese
  390. Default : No
  391. Forced : No

  392. Menu
  393. 00:00:00.000 : en:Chapter 01
  394. 00:07:14.725 : en:Chapter 02
  395. 00:18:15.969 : en:Chapter 03
  396. 00:24:33.388 : en:Chapter 04
  397. 00:27:45.163 : en:Chapter 05
  398. 00:32:07.258 : en:Chapter 06
  399. 00:43:16.594 : en:Chapter 07
  400. 00:45:49.329 : en:Chapter 08
  401. 00:51:45.060 : en:Chapter 09
  402. 00:57:46.921 : en:Chapter 10
  403. 01:06:17.348 : en:Chapter 11
  404. 01:10:49.995 : en:Chapter 12
  405. 01:19:58.001 : en:Chapter 13
  406. 01:29:03.880 : en:Chapter 14
  407. 01:39:44.144 : en:Chapter 15
  408. 01:49:59.593 : en:Chapter 16
复制代码

星际迷航7 / 星空奇遇记7:星空奇兵(港) / 星舰奇航记7:日换星移(台) / 星际争霸战7 / 星舰迷航记7 / Star Trek 7/星际旅行7:斗转星移4k Star Trek Generations 1994 2160p 2160p BluRay AI x265 HEVC 10bit AAC 5.1电影下载

星际旅行7:斗转星移4k Star Trek Generations 1994 2160p 2160p BluRay AI x265 HEVC 10bit AAC 5.1【7.2 GB】
星际旅行7:斗转星移4k 4k.txt (100 Bytes)
回复

使用道具 举报

全部回复2

zhucetempmail 发表于 2021-3-11 22:37:54

zhucetempmail 沙发

2021-3-11 22:37:54

感谢分享
回复 支持 反对

使用道具 举报

juju1 发表于 2021-3-12 08:29:53

juju1 板凳

2021-3-12 08:29:53

谢谢楼主
回复 支持 反对

使用道具 举报

   发表回复

您需要登录后才可以回帖 登录 | 立即注册

返回列表 本版积分规则

  • 在线客服

  • 返回顶部