微博 微信

Hao4K影音

电影频道
电影封面:
片  名: 孤胆煞星4k
电影分类: 犯罪 惊悚 剧情 
国  家: 美国 
年  代: 2019年
分 辨 率: 4K(3840x2160)
电影格式: MKV|REMUX 
画质标准: SDR 
音质编码: Dolby Digital Plus Audio 其他DD 
电影声道: 5.1声道 
帧数/FPS: 23.976 帧
电影语言: 英文原版 
资源大小: 10.35 GB
导  演: Brian A. Metcalf
豆瓣评分: 7.0 分
中文字幕: /thread-55147-1-1.html
剧情简介:  In order to save his sister, a ride-share driver must infiltrate a dangerous crime syndicate.
不利/孤胆煞星4k Adverse.2020.2160p.WEB-DL.x265.8bit.SDR.DDP5.1电影信息
  1. Video
  2. ID : 1
  3. Format : HEVC
  4. Format/Info : High Efficiency Video Coding
  5. Format profile : Main@L5.1@Main
  6. Codec ID : V_MPEGH/ISO/HEVC
  7. Duration : 1 h 34 min
  8. Bit rate : 15.1 Mb/s
  9. Width : 3 840 pixels
  10. Height : 2 160 pixels
  11. Display aspect ratio : 16:9
  12. Frame rate mode : Constant
  13. Frame rate : 23.976 (24000/1001) FPS
  14. Color space : YUV
  15. Chroma subsampling : 4:2:0
  16. Bit depth : 8 bits
  17. Bits/(Pixel*Frame) : 0.076
  18. Stream size : 9.93 GiB (96%)
  19. Default : Yes
  20. Forced : No
  21. Color range : Limited
  22. Color primaries : BT.709
  23. Transfer characteristics : BT.709
  24. Matrix coefficients : BT.709

  25. Audio
  26. ID : 2
  27. Format : E-AC-3
  28. Format/Info : Enhanced AC-3
  29. Commercial name : Dolby Digital Plus
  30. Codec ID : A_EAC3
  31. Duration : 1 h 34 min
  32. Bit rate mode : Constant
  33. Bit rate : 640 kb/s
  34. Channel(s) : 6 channels
  35. Channel layout : L R C LFE Ls Rs
  36. Sampling rate : 48.0 kHz
  37. Frame rate : 31.250 FPS (1536 SPF)
  38. Compression mode : Lossy
  39. Stream size : 431 MiB (4%)
  40. Language : English
  41. Service kind : Complete Main
  42. Default : Yes
  43. Forced : No

  44. Text
  45. ID : 3
  46. Format : UTF-8
  47. Codec ID : S_TEXT/UTF8
  48. Codec ID/Info : UTF-8 Plain Text
  49. Duration : 1 h 29 min
  50. Bit rate : 47 b/s
  51. Count of elements : 1141
  52. Stream size : 31.2 KiB (0%)
  53. Title : English (SDH)
  54. Language : English
  55. Default : No
  56. Forced : No
复制代码

不利/孤胆煞星4k Adverse.2020.2160p.WEB-DL.x265.8bit.SDR.DDP5.1电影下载

孤胆煞星4k Adverse.2020.2160p.WEB-DL.x265.8bit.SDR.DDP5.1【10.35 GB】
[Hao4k]孤胆煞星4k Adverse.2020.2160p.WEB-DL.x265.8bit.SDR.DDP5.1-TOMMY.torrent (52.29 KB, 售价: 2 K币)
回复

使用道具 举报

全部回复70

大猫库贾 发表于 2021-3-11 14:34:39

大猫库贾 沙发

2021-3-11 14:34:39

占楼成功!
回复 支持 反对

使用道具 举报

bonna 发表于 2021-3-11 15:14:03

bonna 板凳

2021-3-11 15:14:03

英文简介。
回复 支持 反对

使用道具 举报

华氏庶风 发表于 2021-3-11 17:35:27 Hao4K手机版

华氏庶风 地板

2021-3-11 17:35:27

地板还有。
回复 支持 反对

使用道具 举报

bbgrnnji 发表于 2021-3-11 17:41:29

bbgrnnji 5#

2021-3-11 17:41:29

米基·洛克的电影,谢了
回复 支持 反对

使用道具 举报

独舞未央 发表于 2021-3-11 17:53:15

独舞未央 6#

2021-3-11 17:53:15

静等原盘发布
回复 支持 反对

使用道具 举报

alex_xi0571 发表于 2021-3-11 18:18:35

alex_xi0571 7#

2021-3-11 18:18:35

机器翻译简介:为了救他的妹妹,网约车司机必须打入一个危险的犯罪集团。貌似有点意思啊
回复 支持 反对

使用道具 举报

812770947 发表于 2021-3-11 18:31:28

812770947 8#

2021-3-11 18:31:28

豆瓣没有评分
回复 支持 1 反对 0

使用道具 举报

tonggr 发表于 2021-3-11 18:54:21

tonggr 9#

2021-3-11 18:54:21

赶紧找找中文字幕
回复 支持 反对

使用道具 举报

月光麦田 发表于 2021-3-11 19:32:25

月光麦田 10#

2021-3-11 19:32:25

应该很不错哦
回复 支持 反对

使用道具 举报

森林的人 发表于 2021-3-11 20:16:49

森林的人 11#

2021-3-11 20:16:49

不利/孤胆煞星4
回复 支持 反对

使用道具 举报

Zyh2018 发表于 2021-3-11 20:30:02

Zyh2018 12#

2021-3-11 20:30:02

谢谢楼主分享
回复 支持 反对

使用道具 举报

lhy1975 发表于 2021-3-11 22:03:29 Hao4K手机版

lhy1975 13#

2021-3-11 22:03:29

不错的电影
回复 支持 反对

使用道具 举报

josephlok 发表于 2021-3-12 00:23:35

josephlok 14#

2021-3-12 00:23:35


静等原盘发布
回复 支持 反对

使用道具 举报

dyczw 发表于 2021-3-12 06:39:27

dyczw 15#

2021-3-12 06:39:27

感谢分享,辛苦了。
回复 支持 反对

使用道具 举报

世爵39 发表于 2021-3-12 08:12:13

世爵39 16#

2021-3-12 08:12:13


赶紧找找中文字幕
回复 支持 反对

使用道具 举报

世爵39 发表于 2021-3-12 08:19:08

世爵39 17#

2021-3-12 08:19:08


不利/孤胆煞星4
回复 支持 反对

使用道具 举报

dk30129 发表于 2021-3-12 08:39:53

dk30129 18#

2021-3-12 08:39:53

谢谢分享,辛苦了!
回复 支持 反对

使用道具 举报

   发表回复

您需要登录后才可以回帖 登录 | 立即注册

返回列表 本版积分规则

  • 在线客服

  • 返回顶部