微博 微信

Hao4K影音

电影频道
电影封面:
片  名: 纳尼亚传奇1:狮子、女巫和魔衣橱4k
电影分类: 冒险 剧情 奇幻 
国  家: 美国 英国 
年  代: 00年代
分 辨 率: 4K(3840x2160)
电影格式: MKV|REMUX 
画质标准: 其他 
音质编码: 其他AAC 
电影声道: 5.1声道 
帧数/FPS: 23.976 帧
电影语言: 中文繁体 英文原版 
资源大小: 6.5 GB
导  演: 安德鲁·亚当森
豆瓣评分: 7.4 分
中文字幕: /thread-55120-1-1.html
剧情简介:  二战期间,四个小孩子随着父母来到乡下避战。这些乡村住宅古色古香,其中有一个房间里摆着一个大衣柜。一天,几个小孩子玩捉迷藏,露西(乔基·亨莉 Georgie Henley 饰)躲进了衣柜里,眼前却意外出现了一个神奇的世界——那里白雪皑皑,荒无人烟。她在雪地上走着走着,遇上了 人羊怪物。
  其他孩子也一一进入这个魔法衣橱。他们得知里面的王国叫纳尼亚,正在被一个邪恶的女巫所统治。女巫想把这几个外来者一网打尽,同时这些孩子得知纳尼亚正在女巫的黑暗统治后,和雄狮亚斯兰并肩作战,帮助纳尼亚开始了复国之举。
魔幻王国:狮子·女巫·魔衣橱(港) / 纳尼亚传奇:狮子、女巫、魔衣橱(台) / 神奇的纳尼亚:狮子、女巫和衣橱 / 纳尼亚魔法王国 / 纳尼亚王国 / The Chronicles of Narnia 1/纳尼亚传奇1:狮子、女巫和魔衣橱4k The Chronicles of Narnia The Lion the Witch and the Wardrobe 2005 2160p BluRay AI x265 HEVC 10bit DDP 5.1电影信息
  1. Video
  2. ID : 1
  3. Format : HEVC
  4. Format/Info : High Efficiency Video Coding
  5. Format profile : Main [email protected]@Main
  6. Codec ID : V_MPEGH/ISO/HEVC
  7. Duration : 2 h 17 min
  8. Bit rate : 6 001 kb/s
  9. Width : 3 840 pixels
  10. Height : 1 632 pixels
  11. Display aspect ratio : 2.35:1
  12. Frame rate mode : Constant
  13. Frame rate : 23.976 (24000/1001) FPS
  14. Color space : YUV
  15. Chroma subsampling : 4:2:0
  16. Bit depth : 10 bits
  17. Bits/(Pixel*Frame) : 0.040
  18. Stream size : 5.78 GiB (89%)
  19. Writing library : x265 3.2+9-971180b100f8:[Windows][MSVC 1923][64 bit] 10bit
  20. Encoding settings : cpuid=1111039 / frame-threads=4 / numa-pools=24 / wpp / no-pmode / no-pme / no-psnr / ssim / log-level=2 / input-csp=1 / input-res=3840x1632 / interlace=0 / total-frames=198463 / level-idc=0 / high-tier=1 / uhd-bd=0 / ref=4 / no-allow-non-conformance / no-repeat-headers / annexb / no-aud / no-hrd / info / hash=0 / no-temporal-layers / open-gop / min-keyint=23 / keyint=250 / gop-lookahead=0 / bframes=8 / b-adapt=2 / b-pyramid / bframe-bias=40 / rc-lookahead=40 / lookahead-slices=4 / scenecut=40 / radl=0 / no-splice / no-intra-refresh / ctu=64 / min-cu-size=8 / no-rect / no-amp / max-tu-size=32 / tu-inter-depth=1 / tu-intra-depth=1 / limit-tu=0 / rdoq-level=2 / dynamic-rd=0.00 / ssim-rd / signhide / no-tskip / nr-intra=0 / nr-inter=0 / constrained-intra / strong-intra-smoothing / max-merge=3 / limit-refs=3 / limit-modes / me=3 / subme=3 / merange=57 / temporal-mvp / no-frame-dup / no-hme / weightp / no-weightb / no-analyze-src-pics / deblock=0:0 / sao / no-sao-non-deblock / rd=4 / selective-sao=4 / early-skip / rskip / no-fast-intra / no-tskip-fast / no-cu-lossless / no-b-intra / splitrd-skip / rdpenalty=0 / psy-rd=3.50 / psy-rdoq=2.50 / no-rd-refine / no-lossless / cbqpoffs=0 / crqpoffs=0 / rc=abr / bitrate=6000 / qcomp=0.60 / qpstep=4 / stats-write=0 / stats-read=2 / cplxblur=20.0 / qblur=0.5 / ipratio=1.40 / pbratio=1.30 / aq-mode=3 / aq-strength=0.40 / cutree / zone-count=0 / no-strict-cbr / qg-size=32 / no-rc-grain / qpmax=69 / qpmin=0 / no-const-vbv / sar=0 / overscan=0 / videoformat=5 / range=0 / colorprim=1 / transfer=1 / colormatrix=1 / chromaloc=0 / display-window=0 / cll=0,0 / min-luma=0 / max-luma=1023 / log2-max-poc-lsb=8 / vui-timing-info / vui-hrd-info / slices=1 / no-opt-qp-pps / no-opt-ref-list-length-pps / multi-pass-opt-rps / scenecut-bias=0.05 / no-opt-cu-delta-qp / no-aq-motion / no-hdr / no-hdr-opt / no-dhdr10-opt / no-idr-recovery-sei / analysis-load / analysis-reuse-level=10 / scale-factor=0 / refine-intra=0 / refine-inter=0 / refine-mv=1 / refine-ctu-distortion=0 / limit-sao / ctu-info=0 / no-lowpass-dct / refine-analysis-type=0 / copy-pic=1 / max-ausize-factor=1.0 / no-dynamic-refine / no-single-sei / no-hevc-aq / no-svt / no-field / qp-adaptation-range=1.00
  21. Default : Yes
  22. Forced : No
  23. Color range : Limited
  24. Color primaries : BT.709
  25. Transfer characteristics : BT.709
  26. Matrix coefficients : BT.709

  27. Audio #1
  28. ID : 2
  29. Format : E-AC-3
  30. Format/Info : Enhanced Audio Coding 3
  31. Format settings, Endianness : Big
  32. Codec ID : A_EAC3
  33. Duration : 2 h 22 min
  34. Bit rate mode : Constant
  35. Bit rate : 448 kb/s
  36. Channel(s) : 6 channels
  37. Channel positions : Front: L C R, Side: L R, LFE
  38. Sampling rate : 48.0 kHz
  39. Frame rate : 187.500 FPS (256 spf)
  40. Compression mode : Lossy
  41. Stream size : 458 MiB (7%)
  42. Language : English
  43. Default : No
  44. Forced : No

  45. Audio #2
  46. ID : 3
  47. Format : AAC
  48. Format/Info : Advanced Audio Codec
  49. Format profile : HE-AAC / LC
  50. Codec ID : A_AAC
  51. Duration : 2 h 22 min
  52. Bit rate : 43.5 kb/s
  53. Channel(s) : 2 channels
  54. Channel positions : Front: L R
  55. Sampling rate : 48.0 kHz / 24.0 kHz
  56. Frame rate : 23.438 FPS (1024 spf)
  57. Compression mode : Lossy
  58. Delay relative to video : 31 ms
  59. Stream size : 44.5 MiB (1%)
  60. Title : Commentary with director/co-writer/executive producer Andrew Adamnson, and actors William Moseley, Anna Popplewell, Skandar Keynes and Georgie Henley
  61. Language : English
  62. Default : No
  63. Forced : No

  64. Audio #3
  65. ID : 4
  66. Format : AAC
  67. Format/Info : Advanced Audio Codec
  68. Format profile : HE-AACv2 / HE-AAC / LC
  69. Codec ID : A_AAC
  70. Duration : 2 h 22 min
  71. Bit rate : 43.6 kb/s
  72. Channel(s) : 2 channels / channel0 / channel0
  73. Channel positions : Front: L R / /
  74. Sampling rate : 48.0 kHz / 48.0 kHz / 24.0 kHz
  75. Frame rate : 23.438 FPS (1024 spf)
  76. Compression mode : Lossy
  77. Delay relative to video : 31 ms
  78. Stream size : 44.6 MiB (1%)
  79. Title : Commentary with director/co-writer/executive producer Andrew Adamnson, production designer Roger Ford and co-producer Mark Johnson
  80. Language : English
  81. Default : No
  82. Forced : No

  83. Subtitle #1
  84. ID : 5
  85. Format : PGS
  86. Muxing mode : zlib
  87. Codec ID : S_HDMV/PGS
  88. Codec ID/Info : Picture based subtitle format used on BDs/HD-DVDs
  89. Duration : 2 h 11 min
  90. Bit rate : 18.6 kb/s
  91. Count of elements : 2139
  92. Stream size : 17.4 MiB (0%)
  93. Language : English
  94. Default : No
  95. Forced : No

  96. Subtitle #2
  97. ID : 6
  98. Format : VobSub
  99. Muxing mode : zlib
  100. Codec ID : S_VOBSUB
  101. Codec ID/Info : Picture based subtitle format used on DVDs
  102. Duration : 2 h 16 min
  103. Bit rate : 6 049 b/s
  104. Count of elements : 1286
  105. Stream size : 5.93 MiB (0%)
  106. Language : English
  107. Default : No
  108. Forced : No

  109. Subtitle #3
  110. ID : 7
  111. Format : VobSub
  112. Muxing mode : zlib
  113. Codec ID : S_VOBSUB
  114. Codec ID/Info : Picture based subtitle format used on DVDs
  115. Duration : 2 h 10 min
  116. Bit rate : 32.5 kb/s
  117. Count of elements : 5114
  118. Stream size : 30.4 MiB (0%)
  119. Language : English
  120. Default : No
  121. Forced : No

  122. Subtitle #4
  123. ID : 8
  124. Format : VobSub
  125. Muxing mode : zlib
  126. Codec ID : S_VOBSUB
  127. Codec ID/Info : Picture based subtitle format used on DVDs
  128. Duration : 2 h 11 min
  129. Bit rate : 4 462 b/s
  130. Count of elements : 971
  131. Stream size : 4.19 MiB (0%)
  132. Language : French
  133. Default : No
  134. Forced : No

  135. Subtitle #5
  136. ID : 9
  137. Format : VobSub
  138. Muxing mode : zlib
  139. Codec ID : S_VOBSUB
  140. Codec ID/Info : Picture based subtitle format used on DVDs
  141. Duration : 2 h 13 min
  142. Bit rate : 16.6 kb/s
  143. Count of elements : 2318
  144. Stream size : 15.8 MiB (0%)
  145. Language : French
  146. Default : No
  147. Forced : No

  148. Subtitle #6
  149. ID : 10
  150. Format : VobSub
  151. Muxing mode : zlib
  152. Codec ID : S_VOBSUB
  153. Codec ID/Info : Picture based subtitle format used on DVDs
  154. Duration : 2 h 13 min
  155. Bit rate : 16.8 kb/s
  156. Count of elements : 2418
  157. Stream size : 16.1 MiB (0%)
  158. Language : French
  159. Default : No
  160. Forced : No

  161. Subtitle #7
  162. ID : 11
  163. Format : VobSub
  164. Muxing mode : zlib
  165. Codec ID : S_VOBSUB
  166. Codec ID/Info : Picture based subtitle format used on DVDs
  167. Duration : 2 h 10 min
  168. Bit rate : 31.1 kb/s
  169. Count of elements : 5114
  170. Stream size : 29.1 MiB (0%)
  171. Language : French
  172. Default : No
  173. Forced : No

  174. Subtitle #8
  175. ID : 12
  176. Format : VobSub
  177. Muxing mode : zlib
  178. Codec ID : S_VOBSUB
  179. Codec ID/Info : Picture based subtitle format used on DVDs
  180. Duration : 2 h 11 min
  181. Bit rate : 5 168 b/s
  182. Count of elements : 982
  183. Stream size : 4.86 MiB (0%)
  184. Language : German
  185. Default : No
  186. Forced : No

  187. Subtitle #9
  188. ID : 13
  189. Format : VobSub
  190. Muxing mode : zlib
  191. Codec ID : S_VOBSUB
  192. Codec ID/Info : Picture based subtitle format used on DVDs
  193. Duration : 1 min 19 s
  194. Bit rate : 1 525 b/s
  195. Count of elements : 3
  196. Stream size : 14.7 KiB (0%)
  197. Language : German
  198. Default : No
  199. Forced : No

  200. Subtitle #10
  201. ID : 14
  202. Format : VobSub
  203. Muxing mode : zlib
  204. Codec ID : S_VOBSUB
  205. Codec ID/Info : Picture based subtitle format used on DVDs
  206. Duration : 2 h 13 min
  207. Bit rate : 18.0 kb/s
  208. Count of elements : 2381
  209. Stream size : 17.1 MiB (0%)
  210. Language : German
  211. Default : No
  212. Forced : No

  213. Subtitle #11
  214. ID : 15
  215. Format : VobSub
  216. Muxing mode : zlib
  217. Codec ID : S_VOBSUB
  218. Codec ID/Info : Picture based subtitle format used on DVDs
  219. Duration : 2 h 13 min
  220. Bit rate : 18.2 kb/s
  221. Count of elements : 2451
  222. Stream size : 17.4 MiB (0%)
  223. Language : German
  224. Default : No
  225. Forced : No

  226. Subtitle #12
  227. ID : 16
  228. Format : VobSub
  229. Muxing mode : zlib
  230. Codec ID : S_VOBSUB
  231. Codec ID/Info : Picture based subtitle format used on DVDs
  232. Duration : 2 h 10 min
  233. Bit rate : 32.9 kb/s
  234. Count of elements : 5114
  235. Stream size : 30.7 MiB (0%)
  236. Language : German
  237. Default : No
  238. Forced : No

  239. Subtitle #13
  240. ID : 17
  241. Format : VobSub
  242. Muxing mode : zlib
  243. Codec ID : S_VOBSUB
  244. Codec ID/Info : Picture based subtitle format used on DVDs
  245. Duration : 2 h 11 min
  246. Bit rate : 5 023 b/s
  247. Count of elements : 1052
  248. Stream size : 4.72 MiB (0%)
  249. Language : Italian
  250. Default : No
  251. Forced : No

  252. Subtitle #14
  253. ID : 18
  254. Format : VobSub
  255. Muxing mode : zlib
  256. Codec ID : S_VOBSUB
  257. Codec ID/Info : Picture based subtitle format used on DVDs
  258. Duration : 2 h 13 min
  259. Bit rate : 15.3 kb/s
  260. Count of elements : 2311
  261. Stream size : 14.5 MiB (0%)
  262. Language : Italian
  263. Default : No
  264. Forced : No

  265. Subtitle #15
  266. ID : 19
  267. Format : VobSub
  268. Muxing mode : zlib
  269. Codec ID : S_VOBSUB
  270. Codec ID/Info : Picture based subtitle format used on DVDs
  271. Duration : 2 h 13 min
  272. Bit rate : 16.0 kb/s
  273. Count of elements : 2299
  274. Stream size : 15.4 MiB (0%)
  275. Language : Italian
  276. Default : No
  277. Forced : No

  278. Subtitle #16
  279. ID : 20
  280. Format : VobSub
  281. Muxing mode : zlib
  282. Codec ID : S_VOBSUB
  283. Codec ID/Info : Picture based subtitle format used on DVDs
  284. Duration : 2 h 10 min
  285. Bit rate : 31.8 kb/s
  286. Count of elements : 5114
  287. Stream size : 29.8 MiB (0%)
  288. Language : Italian
  289. Default : No
  290. Forced : No

  291. Subtitle #17
  292. ID : 21
  293. Format : VobSub
  294. Muxing mode : zlib
  295. Codec ID : S_VOBSUB
  296. Codec ID/Info : Picture based subtitle format used on DVDs
  297. Duration : 2 h 11 min
  298. Bit rate : 5 303 b/s
  299. Count of elements : 1081
  300. Stream size : 4.98 MiB (0%)
  301. Language : Russian
  302. Default : No
  303. Forced : No

  304. Subtitle #18
  305. ID : 22
  306. Format : VobSub
  307. Muxing mode : zlib
  308. Codec ID : S_VOBSUB
  309. Codec ID/Info : Picture based subtitle format used on DVDs
  310. Duration : 2 h 13 min
  311. Bit rate : 18.9 kb/s
  312. Count of elements : 2465
  313. Stream size : 18.0 MiB (0%)
  314. Language : Russian
  315. Default : No
  316. Forced : No

  317. Subtitle #19
  318. ID : 23
  319. Format : VobSub
  320. Muxing mode : zlib
  321. Codec ID : S_VOBSUB
  322. Codec ID/Info : Picture based subtitle format used on DVDs
  323. Duration : 2 h 13 min
  324. Bit rate : 16.8 kb/s
  325. Count of elements : 2491
  326. Stream size : 16.1 MiB (0%)
  327. Language : Russian
  328. Default : No
  329. Forced : No

  330. Subtitle #20
  331. ID : 24
  332. Format : VobSub
  333. Muxing mode : zlib
  334. Codec ID : S_VOBSUB
  335. Codec ID/Info : Picture based subtitle format used on DVDs
  336. Duration : 2 h 10 min
  337. Bit rate : 29.8 kb/s
  338. Count of elements : 5114
  339. Stream size : 27.9 MiB (0%)
  340. Language : Russian
  341. Default : No
  342. Forced : No

  343. Subtitle #21
  344. ID : 25
  345. Format : UTF-8
  346. Codec ID : S_TEXT/UTF8
  347. Codec ID/Info : UTF-8 Plain Text
  348. Duration : 2 h 11 min
  349. Bit rate : 27 b/s
  350. Count of elements : 1245
  351. Stream size : 26.3 KiB (0%)
  352. Language : Chinese
  353. Default : No
  354. Forced : No
复制代码

魔幻王国:狮子·女巫·魔衣橱(港) / 纳尼亚传奇:狮子、女巫、魔衣橱(台) / 神奇的纳尼亚:狮子、女巫和衣橱 / 纳尼亚魔法王国 / 纳尼亚王国 / The Chronicles of Narnia 1/纳尼亚传奇1:狮子、女巫和魔衣橱4k The Chronicles of Narnia The Lion the Witch and the Wardrobe 2005 2160p BluRay AI x265 HEVC 10bit DDP 5.1电影下载


纳尼亚传奇1:狮子、女巫和魔衣橱4k The Chronicles of Narnia The Lion the Witch and the Wardrobe 2005 2160p BluRay AI x265 HEVC 10bit DDP 5.1【6.5 GB】
纳尼亚传奇1:狮子、女巫和魔衣橱 4k.txt (113 Bytes)
回复

使用道具 举报

全部回复6

coolkufeng 发表于 2021-3-12 11:01:24

coolkufeng 沙发

2021-3-12 11:01:24

6.5GB,感觉好小哦
回复 支持 反对

使用道具 举报

wdmzxz 发表于 2021-3-13 14:38:58

wdmzxz 板凳

2021-3-13 14:38:58

88888888888
回复 支持 反对

使用道具 举报

77200765 发表于 2021-3-13 22:19:19

77200765 地板

2021-3-13 22:19:19

应该还没有1080P蓝光清晰
回复 支持 反对

使用道具 举报

xiaozx 发表于 2021-3-14 07:29:03

xiaozx 5#

2021-3-14 07:29:03

一直好奇这种资源哪来的,压缩的这么狠,分辨率又强行拉大,不和过去的数码放大一个意思么。。
回复 支持 反对

使用道具 举报

KingsMan_0083 发表于 2021-3-14 19:13:58

KingsMan_0083 6#

2021-3-14 19:13:58

6.5G这有点太小了吧。
回复 支持 反对

使用道具 举报

xytysc 发表于 2021-3-14 19:47:05

xytysc 7#

2021-3-14 19:47:05

好资源,谢谢
回复 支持 反对

使用道具 举报

   发表回复

您需要登录后才可以回帖 登录 | 立即注册

返回列表 本版积分规则

  • 在线客服

  • 返回顶部