微博 微信

Hao4K影音

电影频道
电影封面:
片  名: 谢里4k
电影分类: 犯罪 剧情 
国  家: 美国 
年  代: 2021年
分 辨 率: 4K(3840x2160)
电影格式: MKV|REMUX 
画质标准: HDR SDR 
音质编码: Dolby Digital Plus Audio 
电影声道: 5.1声道 
帧数/FPS: 23.976 帧
电影语言: 中文简体 中文繁体 英文原版 
资源大小: 24.41 GB
导  演: 安东尼·罗素 / 乔·罗素
豆瓣评分: 5.6 分
中文字幕: /thread-55137-1-1.html
剧情简介: 根据尼科·沃克的同名小说改编,故事涉及创伤后应激障碍,故事讲述一个来自富裕家庭的男子本拥有美好生活,此后他远离家乡,到伊拉克成为一名军医,而当他返回家乡后便患上了创伤后应激障碍,此后他吸毒、负债累累,他更是先后抢劫了11家银行。
谢里4k Cherry.2021.2160p.ATVP.WEB-DL.x265.10bit.HDR.DDP5.1.Atmos电影信息
  1. Text #33
  2. ID : 35
  3. Format : UTF-8
  4. Codec ID : S_TEXT/UTF8
  5. Codec ID/Info : UTF-8 Plain Text
  6. Duration : 2 h 20 min
  7. Bit rate : 50 b/s
  8. Count of elements : 1642
  9. Stream size : 51.6 KiB (0%)
  10. Title : Swedish
  11. Language : Swedish
  12. Default : No
  13. Forced : No

  14. Text #34
  15. ID : 36
  16. Format : UTF-8
  17. Codec ID : S_TEXT/UTF8
  18. Codec ID/Info : UTF-8 Plain Text
  19. Duration : 2 h 20 min
  20. Bit rate : 162 b/s
  21. Count of elements : 1645
  22. Stream size : 168 KiB (0%)
  23. Title : Tamil
  24. Language : Tamil
  25. Default : No
  26. Forced : No

  27. Text #35
  28. ID : 37
  29. Format : UTF-8
  30. Codec ID : S_TEXT/UTF8
  31. Codec ID/Info : UTF-8 Plain Text
  32. Duration : 2 h 20 min
  33. Bit rate : 152 b/s
  34. Count of elements : 1645
  35. Stream size : 158 KiB (0%)
  36. Title : Telugu
  37. Language : Telugu
  38. Default : No
  39. Forced : No

  40. Text #36
  41. ID : 38
  42. Format : UTF-8
  43. Codec ID : S_TEXT/UTF8
  44. Codec ID/Info : UTF-8 Plain Text
  45. Duration : 2 h 20 min
  46. Bit rate : 100 b/s
  47. Count of elements : 1649
  48. Stream size : 104 KiB (0%)
  49. Title : Thai
  50. Language : Thai
  51. Default : No
  52. Forced : No

  53. Text #37
  54. ID : 39
  55. Format : UTF-8
  56. Codec ID : S_TEXT/UTF8
  57. Codec ID/Info : UTF-8 Plain Text
  58. Duration : 2 h 20 min
  59. Bit rate : 50 b/s
  60. Count of elements : 1644
  61. Stream size : 52.2 KiB (0%)
  62. Title : Turkish
  63. Language : Turkish
  64. Default : No
  65. Forced : No

  66. Text #38
  67. ID : 40
  68. Format : UTF-8
  69. Codec ID : S_TEXT/UTF8
  70. Codec ID/Info : UTF-8 Plain Text
  71. Duration : 2 h 20 min
  72. Bit rate : 72 b/s
  73. Count of elements : 1645
  74. Stream size : 74.8 KiB (0%)
  75. Title : Ukrainian
  76. Language : Ukrainian
  77. Default : No
  78. Forced : No

  79. Text #39
  80. ID : 41
  81. Format : UTF-8
  82. Codec ID : S_TEXT/UTF8
  83. Codec ID/Info : UTF-8 Plain Text
  84. Duration : 2 h 20 min
  85. Bit rate : 62 b/s
  86. Count of elements : 1646
  87. Stream size : 64.4 KiB (0%)
  88. Title : Vietnamese
  89. Language : Vietnamese
  90. Default : No
  91. Forced : No

  92. Text #40
  93. ID : 42
  94. Format : UTF-8
  95. Codec ID : S_TEXT/UTF8
  96. Codec ID/Info : UTF-8 Plain Text
  97. Duration : 2 h 20 min
  98. Bit rate : 47 b/s
  99. Count of elements : 1650
  100. Stream size : 49.4 KiB (0%)
  101. Title : Cantonese
  102. Language : Chinese
  103. Default : No
  104. Forced : No

  105. Text #41
  106. ID : 43
  107. Format : UTF-8
  108. Codec ID : S_TEXT/UTF8
  109. Codec ID/Info : UTF-8 Plain Text
  110. Duration : 2 h 20 min
  111. Bit rate : 43 b/s
  112. Count of elements : 1649
  113. Stream size : 45.3 KiB (0%)
  114. Title : Simplified
  115. Language : Chinese
  116. Default : No
  117. Forced : No

  118. Text #42
  119. ID : 44
  120. Format : UTF-8
  121. Codec ID : S_TEXT/UTF8
  122. Codec ID/Info : UTF-8 Plain Text
  123. Duration : 2 h 20 min
  124. Bit rate : 45 b/s
  125. Count of elements : 1650
  126. Stream size : 46.9 KiB (0%)
  127. Title : Traditional
  128. Language : Chinese
  129. Default : No
  130. Forced : No
复制代码


谢里4k Cherry.2021.2160p.ATVP.WEB-DL.x265.10bit.HDR.DDP5.1.Atmos电影下载

谢里4k Cherry.2021.2160p.ATVP.WEB-DL.x265.10bit.HDR.DDP5.1.Atmos【24.41 GB】
[Hao4k]谢里4k Cherry.2021.2160p.ATVP.WEB-DL.x265.10bit.HDR.DDP5.1.Atmos-CM.torrent (61.59 KB, 售价: 2 K币)

谢里4k Cherry.2021.2160p.ATVP.WEB-DL.x265.10bit.SDR.DDP5.1.Atmos【21.04 GB】
[Hao4k]谢里4k Cherry.2021.2160p.ATVP.WEB-DL.x265.10bit.SDR.DDP5.1.Atmos-CM.torrent (53.15 KB, 售价: 2 K币)

分享到:  QQ好友和群QQ好友和群
回复

使用道具 举报

全部回复63

沙发
sztransfer 发表于 2021-3-12 19:35:05

sztransfer 沙发

2021-3-12 19:35:05

谢谢分享
回复 支持 反对

使用道具 举报

板凳
diszo 发表于 2021-3-12 20:22:19

diszo 板凳

2021-3-12 20:22:19

封面很帅!感谢大佬分享
回复 支持 反对

使用道具 举报

地板
九万 发表于 2021-3-12 21:15:24

九万 地板

2021-3-12 21:15:24


谢谢分享
回复 支持 反对

使用道具 举报

5#
alunsf 发表于 2021-3-12 21:58:40

alunsf 5#

2021-3-12 21:58:40

蜘蛛侠?有点意思
回复 支持 反对

使用道具 举报

6#
concord3303 发表于 2021-3-13 08:25:07

concord3303 6#

2021-3-13 08:25:07


谢谢楼主无私分享
回复 支持 反对

使用道具 举报

7#
dk30129 发表于 2021-3-13 09:09:54

dk30129 7#

2021-3-13 09:09:54

谢谢分享,顶你!!!
回复 支持 反对

使用道具 举报

8#
cb917918 发表于 2021-3-13 09:24:39

cb917918 8#

2021-3-13 09:24:39



4K原盘,终于等来了!
回复 支持 反对

使用道具 举报

9#
yangly 发表于 2021-3-13 09:50:59

yangly 9#

2021-3-13 09:50:59

谢谢楼主无私分享
回复 支持 反对

使用道具 举报

10#
xxw8888 发表于 2021-3-13 09:53:15

xxw8888 10#

2021-3-13 09:53:15

谢谢分享,顶你!!!
回复 支持 反对

使用道具 举报

11#
fmm920 发表于 2021-3-13 09:58:50

fmm920 11#

2021-3-13 09:58:50

谢谢楼主无私分享
回复 支持 反对

使用道具 举报

12#
cn8355 发表于 2021-3-13 10:01:09

cn8355 12#

2021-3-13 10:01:09

感谢大佬分享
回复 支持 反对

使用道具 举报

13#
Makoto8023 发表于 2021-3-13 12:44:12

Makoto8023 13#

2021-3-13 12:44:12

谢谢分享
回复 支持 反对

使用道具 举报

14#
firevip 发表于 2021-3-13 14:02:30

firevip 14#

2021-3-13 14:02:30

感谢大佬分享
回复 支持 反对

使用道具 举报

15#
zzszengzeng 发表于 2021-3-13 14:24:57

zzszengzeng 15#

2021-3-13 14:24:57

感谢分享,支持了
回复 支持 反对

使用道具 举报

16#
panbell 发表于 2021-3-13 17:24:00

panbell 16#

2021-3-13 17:24:00

为楼主的分享行为点赞
回复 支持 反对

使用道具 举报

17#
DunOP 发表于 2021-3-13 17:59:41

DunOP 17#

2021-3-13 17:59:41

荷兰弟,谢谢分享!
回复 支持 反对

使用道具 举报

18#
andywjhh 发表于 2021-3-13 19:31:43

andywjhh 18#

2021-3-13 19:31:43

好资源很给力
回复 支持 反对

使用道具 举报

   发表回复

您需要登录后才可以回帖 登录 | 立即注册

返回列表 本版积分规则

  • 在线客服

  • 返回顶部