微博 微信

Hao4K影音

[美剧] Good.Game.S01.2160p.美剧下载

2021-3-15 09:15:34 14058 0 |只看大图 回帖奖励 |倒序浏览 |阅读模式

大红色 楼主

2021-3-15 09:15:34

电视剧频道
电视剧封面:
电视剧名: Good.Game
年  代: 2017  
国  家: 美国
类  别: 喜剧 
语  言: 英语
字  幕: -
上映日期: 2017-08-30
文件格式: mkv    
视频效果: 4K(3840x2160)    
资源大小: 11.92 GB
片  长: 25 分钟
导  演: Danny Jelinek
剧情简介: Alex and Ryland are two gaming nerds that need to build a team to defeat their competition in the ultimate gaming competition.
Good.Game.S01.2160p.RED.WEBRip.AAC5.1.VP9美剧信息
  1. Video
  2. ID : 1
  3. Format : VP9
  4. Codec ID : V_VP9
  5. Duration : 24 min 57 s
  6. Bit rate : 13.0 Mb/s
  7. Width : 3 840 pixels
  8. Height : 2 160 pixels
  9. Display aspect ratio : 16:9
  10. Frame rate mode : Constant
  11. Frame rate : 23.976 (24000/1001) FPS
  12. Bits/(Pixel*Frame) : 0.065
  13. Stream size : 2.26 GiB (97%)
  14. Default : Yes
  15. Forced : No

  16. Audio
  17. ID : 2
  18. Format : AAC LC
  19. Format/Info : Advanced Audio Codec Low Complexity
  20. Codec ID : A_AAC-2
  21. Duration : 24 min 57 s
  22. Bit rate : 384 kb/s
  23. Channel(s) : 6 channels
  24. Channel layout : C L R Ls Rs LFE
  25. Sampling rate : 48.0 kHz
  26. Frame rate : 46.875 FPS (1024 SPF)
  27. Compression mode : Lossy
  28. Stream size : 68.9 MiB (3%)
  29. Language : English
  30. Default : Yes
  31. Forced : No

  32. Text #1
  33. ID : 3
  34. Format : UTF-8
  35. Codec ID : S_TEXT/UTF8
  36. Codec ID/Info : UTF-8 Plain Text
  37. Duration : 24 min 44 s
  38. Bit rate : 112 b/s
  39. Count of elements : 609
  40. Stream size : 20.4 KiB (0%)
  41. Language : English
  42. Default : No
  43. Forced : No

  44. Text #2
  45. ID : 4
  46. Format : UTF-8
  47. Codec ID : S_TEXT/UTF8
  48. Codec ID/Info : UTF-8 Plain Text
  49. Duration : 24 min 44 s
  50. Bit rate : 108 b/s
  51. Count of elements : 520
  52. Stream size : 19.6 KiB (0%)
  53. Language : French
  54. Default : No
  55. Forced : No

  56. Text #3
  57. ID : 5
  58. Format : UTF-8
  59. Codec ID : S_TEXT/UTF8
  60. Codec ID/Info : UTF-8 Plain Text
  61. Duration : 24 min 43 s
  62. Bit rate : 112 b/s
  63. Count of elements : 552
  64. Stream size : 20.3 KiB (0%)
  65. Language : German
  66. Default : No
  67. Forced : No

  68. Text #4
  69. ID : 6
  70. Format : UTF-8
  71. Codec ID : S_TEXT/UTF8
  72. Codec ID/Info : UTF-8 Plain Text
  73. Duration : 24 min 43 s
  74. Bit rate : 116 b/s
  75. Count of elements : 593
  76. Stream size : 21.1 KiB (0%)
  77. Language : Japanese
  78. Default : No
  79. Forced : No

  80. Text #5
  81. ID : 7
  82. Format : UTF-8
  83. Codec ID : S_TEXT/UTF8
  84. Codec ID/Info : UTF-8 Plain Text
  85. Duration : 24 min 43 s
  86. Bit rate : 150 b/s
  87. Count of elements : 634
  88. Stream size : 27.2 KiB (0%)
  89. Language : Korean
  90. Default : No
  91. Forced : No

  92. Text #6
  93. ID : 8
  94. Format : UTF-8
  95. Codec ID : S_TEXT/UTF8
  96. Codec ID/Info : UTF-8 Plain Text
  97. Duration : 24 min 27 s
  98. Bit rate : 106 b/s
  99. Count of elements : 538
  100. Stream size : 19.1 KiB (0%)
  101. Language : Portuguese
  102. Default : No
  103. Forced : No

  104. Text #7
  105. ID : 9
  106. Format : UTF-8
  107. Codec ID : S_TEXT/UTF8
  108. Codec ID/Info : UTF-8 Plain Text
  109. Duration : 24 min 44 s
  110. Bit rate : 102 b/s
  111. Count of elements : 541
  112. Stream size : 18.6 KiB (0%)
  113. Language : Spanish
  114. Default : No
  115. Forced : No
复制代码

Good.Game.S01.2160p.RED.WEBRip.AAC5.1.VP9美剧下载

Good.Game.S01.2160p.RED.WEBRip.AAC5.1.VP9【11.92 GB】
Good.Game.S01.2160p.RED.WEBRip.AAC5.1.VP9-iNSPiRiT[rartv].torrent (60.5 KB)
回复

使用道具 举报

   发表回复

您需要登录后才可以回帖 登录 | 立即注册

返回列表 本版积分规则

:
白银玩家
:
未填写

主题

帖子

积分1018

图文推荐

  • 【已售】出售115永久皇冠VIP

    115网盘: 超大空间、高速传输、200G大文

  • 出开博尔Q20PLUS+戴尔UP2718q hdr1000显示

    设备升级了,转让纯一手开博尔Q20PLUS 4K硬盘播放

  • 出99新的Xbox one X港服,只买了两个月寻有

    只买了两个月的Xbox one X港服,寻有缘人,拿回来

  • (已出,谢谢)出WD 8T紫盘,带6.6T资源。

    已出,谢谢关注! ======================

  • 4K原盘900余部,顶级蓝光影视剧万余部,海

    感谢Hao4k专业平台的支持!个人喜爱影视剧收藏,

  • 在线客服

  • 返回顶部