微博 微信

Hao4K影音

[美剧] 大奖赛车手4k Grand.Prix.Driver.S01.2160p.纪录片下载[自带中文字幕]

8 小时前 29083 6 |只看大图 回帖奖励 |倒序浏览 |阅读模式

大红色 楼主

2021-3-15 09:22:18

电视剧频道
电视剧封面:
电视剧名: 大奖赛车手4k
年  代: 2018  
国  家: 美国
类  别: 纪录片 
语  言: 英语
字  幕: 英文原版
上映日期: 2018-02-08
文件格式: mkv    
视频效果: 4K(3840x2160)    
资源大小: 11.74 GB
片  长: 27 分钟
导  演: 阿德里安·麦克道尔
剧情简介:  This series offers unprecedented access to FORMULA ONE racing, a highly secretive and competitive world. It follows McLaren, one of the sport\'s most successful teams, during the 2017 pre-season as they gear up for their first race in Melbourne. After three tough years without a win, McLaren is hopeful that they will be back on top with their promotion of rookie driver, Stoffel Vandoorne.
大奖赛车手4k Grand.Prix.Driver.S01.2160p.AMZN.WEB-DL.x265.10bit.HDR10Plus.DDP5.1纪录片信息
  1. Video
  2. ID : 1
  3. Format : HEVC
  4. Format/Info : High Efficiency Video Coding
  5. Format profile : Main 10@L5@Main
  6. HDR format : SMPTE ST 2094 App 4, Version 1, HDR10+ Profile B compatible
  7. Codec ID : V_MPEGH/ISO/HEVC
  8. Duration : 29 min 32 s
  9. Bit rate : 14.8 Mb/s
  10. Width : 3 840 pixels
  11. Height : 2 160 pixels
  12. Display aspect ratio : 16:9
  13. Frame rate mode : Constant
  14. Frame rate : 25.000 FPS
  15. Color space : YUV
  16. Chroma subsampling : 4:2:0
  17. Bit depth : 10 bits
  18. Bits/(Pixel*Frame) : 0.072
  19. Stream size : 3.06 GiB (96%)
  20. Default : Yes
  21. Forced : No
  22. Color range : Limited
  23. Color primaries : BT.2020
  24. Transfer characteristics : PQ
  25. Matrix coefficients : BT.2020 non-constant
  26. Mastering display color primaries : Display P3
  27. Mastering display luminance : min: 0.0001 cd/m2, max: 1000 cd/m2
  28. Maximum Content Light Level : 893 cd/m2
  29. Maximum Frame-Average Light Level : 528 cd/m2

  30. Audio
  31. ID : 2
  32. Format : E-AC-3
  33. Format/Info : Enhanced AC-3
  34. Commercial name : Dolby Digital Plus
  35. Codec ID : A_EAC3
  36. Duration : 29 min 32 s
  37. Bit rate mode : Constant
  38. Bit rate : 640 kb/s
  39. Channel(s) : 6 channels
  40. Channel layout : L R C LFE Ls Rs
  41. Sampling rate : 48.0 kHz
  42. Frame rate : 31.250 FPS (1536 SPF)
  43. Compression mode : Lossy
  44. Stream size : 135 MiB (4%)
  45. Title : English
  46. Language : English
  47. Service kind : Complete Main
  48. Default : No
  49. Forced : No

  50. Text #1
  51. ID : 3
  52. Format : UTF-8
  53. Codec ID : S_TEXT/UTF8
  54. Codec ID/Info : UTF-8 Plain Text
  55. Duration : 28 min 42 s
  56. Bit rate : 78 b/s
  57. Count of elements : 478
  58. Stream size : 16.6 KiB (0%)
  59. Title : Chinese (Traditional)
  60. Language : Chinese
  61. Default : No
  62. Forced : No

  63. Text #2
  64. ID : 4
  65. Format : UTF-8
  66. Codec ID : S_TEXT/UTF8
  67. Codec ID/Info : UTF-8 Plain Text
  68. Duration : 28 min 42 s
  69. Bit rate : 96 b/s
  70. Count of elements : 511
  71. Stream size : 20.2 KiB (0%)
  72. Title : English [SDH]
  73. Language : English
  74. Default : No
  75. Forced : No

  76. Text #3
  77. ID : 5
  78. Format : UTF-8
  79. Codec ID : S_TEXT/UTF8
  80. Codec ID/Info : UTF-8 Plain Text
  81. Duration : 28 min 42 s
  82. Bit rate : 96 b/s
  83. Count of elements : 468
  84. Stream size : 20.3 KiB (0%)
  85. Title : Turkish
  86. Language : Turkish
  87. Default : No
  88. Forced : No

  89. Text #4
  90. ID : 6
  91. Format : UTF-8
  92. Codec ID : S_TEXT/UTF8
  93. Codec ID/Info : UTF-8 Plain Text
  94. Duration : 28 min 45 s
  95. Bit rate : 97 b/s
  96. Count of elements : 411
  97. Stream size : 20.5 KiB (0%)
  98. Title : German
  99. Language : German
  100. Default : No
  101. Forced : No

  102. Text #5
  103. ID : 7
  104. Format : UTF-8
  105. Codec ID : S_TEXT/UTF8
  106. Codec ID/Info : UTF-8 Plain Text
  107. Duration : 28 min 42 s
  108. Bit rate : 94 b/s
  109. Count of elements : 503
  110. Stream size : 19.9 KiB (0%)
  111. Title : English
  112. Language : English
  113. Default : No
  114. Forced : No

  115. Text #6
  116. ID : 8
  117. Format : UTF-8
  118. Codec ID : S_TEXT/UTF8
  119. Codec ID/Info : UTF-8 Plain Text
  120. Duration : 28 min 42 s
  121. Bit rate : 87 b/s
  122. Count of elements : 471
  123. Stream size : 18.5 KiB (0%)
  124. Title : Indonesian
  125. Language : Indonesian
  126. Default : No
  127. Forced : No

  128. Text #7
  129. ID : 9
  130. Format : UTF-8
  131. Codec ID : S_TEXT/UTF8
  132. Codec ID/Info : UTF-8 Plain Text
  133. Duration : 28 min 42 s
  134. Bit rate : 106 b/s
  135. Count of elements : 469
  136. Stream size : 22.3 KiB (0%)
  137. Title : Japanese
  138. Language : Japanese
  139. Default : No
  140. Forced : No

  141. Text #8
  142. ID : 10
  143. Format : UTF-8
  144. Codec ID : S_TEXT/UTF8
  145. Codec ID/Info : UTF-8 Plain Text
  146. Duration : 28 min 42 s
  147. Bit rate : 94 b/s
  148. Count of elements : 466
  149. Stream size : 19.9 KiB (0%)
  150. Title : Spanish
  151. Language : Spanish
  152. Default : No
  153. Forced : No

  154. Text #9
  155. ID : 11
  156. Format : UTF-8
  157. Codec ID : S_TEXT/UTF8
  158. Codec ID/Info : UTF-8 Plain Text
  159. Duration : 28 min 42 s
  160. Bit rate : 90 b/s
  161. Count of elements : 466
  162. Stream size : 19.0 KiB (0%)
  163. Title : Castilian
  164. Language : Spanish
  165. Default : No
  166. Forced : No

  167. Text #10
  168. ID : 12
  169. Format : UTF-8
  170. Codec ID : S_TEXT/UTF8
  171. Codec ID/Info : UTF-8 Plain Text
  172. Duration : 28 min 42 s
  173. Bit rate : 165 b/s
  174. Count of elements : 474
  175. Stream size : 34.9 KiB (0%)
  176. Title : Russian
  177. Language : Russian
  178. Default : No
  179. Forced : No

  180. Text #11
  181. ID : 13
  182. Format : UTF-8
  183. Codec ID : S_TEXT/UTF8
  184. Codec ID/Info : UTF-8 Plain Text
  185. Duration : 28 min 42 s
  186. Bit rate : 146 b/s
  187. Count of elements : 478
  188. Stream size : 30.7 KiB (0%)
  189. Title : Arabic
  190. Language : Arabic
  191. Default : No
  192. Forced : No

  193. Text #12
  194. ID : 14
  195. Format : UTF-8
  196. Codec ID : S_TEXT/UTF8
  197. Codec ID/Info : UTF-8 Plain Text
  198. Duration : 28 min 42 s
  199. Bit rate : 87 b/s
  200. Count of elements : 466
  201. Stream size : 18.4 KiB (0%)
  202. Title : Brazilian Portuguese
  203. Language : Portuguese
  204. Default : No
  205. Forced : No

  206. Text #13
  207. ID : 15
  208. Format : UTF-8
  209. Codec ID : S_TEXT/UTF8
  210. Codec ID/Info : UTF-8 Plain Text
  211. Duration : 28 min 42 s
  212. Bit rate : 99 b/s
  213. Count of elements : 468
  214. Stream size : 20.8 KiB (0%)
  215. Title : Italian
  216. Language : Italian
  217. Default : No
  218. Forced : No

  219. Text #14
  220. ID : 16
  221. Format : UTF-8
  222. Codec ID : S_TEXT/UTF8
  223. Codec ID/Info : UTF-8 Plain Text
  224. Duration : 28 min 42 s
  225. Bit rate : 81 b/s
  226. Count of elements : 478
  227. Stream size : 17.1 KiB (0%)
  228. Title : Chinese (Simplified)
  229. Language : Chinese
  230. Default : No
  231. Forced : No

  232. Text #15
  233. ID : 17
  234. Format : UTF-8
  235. Codec ID : S_TEXT/UTF8
  236. Codec ID/Info : UTF-8 Plain Text
  237. Duration : 28 min 42 s
  238. Bit rate : 83 b/s
  239. Count of elements : 457
  240. Stream size : 17.7 KiB (0%)
  241. Title : Dutch
  242. Language : Dutch
  243. Default : No
  244. Forced : No

  245. Text #16
  246. ID : 18
  247. Format : UTF-8
  248. Codec ID : S_TEXT/UTF8
  249. Codec ID/Info : UTF-8 Plain Text
  250. Duration : 28 min 42 s
  251. Bit rate : 81 b/s
  252. Count of elements : 459
  253. Stream size : 17.1 KiB (0%)
  254. Title : Polish
  255. Language : Polish
  256. Default : No
  257. Forced : No

  258. Text #17
  259. ID : 19
  260. Format : UTF-8
  261. Codec ID : S_TEXT/UTF8
  262. Codec ID/Info : UTF-8 Plain Text
  263. Duration : 28 min 42 s
  264. Bit rate : 85 b/s
  265. Count of elements : 462
  266. Stream size : 18.0 KiB (0%)
  267. Title : French
  268. Language : French
  269. Default : No
  270. Forced : No

  271. Text #18
  272. ID : 20
  273. Format : UTF-8
  274. Codec ID : S_TEXT/UTF8
  275. Codec ID/Info : UTF-8 Plain Text
  276. Duration : 28 min 42 s
  277. Bit rate : 104 b/s
  278. Count of elements : 478
  279. Stream size : 21.9 KiB (0%)
  280. Title : Korean
  281. Language : Korean
  282. Default : No
  283. Forced : No

  284. Menu
  285. 00:00:00.000 : en:Amazon Original
  286. 00:00:05.000 : en:McLaren and the race against time
  287. 00:01:01.000 : en:Title Sequence
  288. 00:01:37.000 : en:Big changes in the company
  289. 00:04:35.000 : en:The new leadership and Fernando Alonso
  290. 00:07:36.000 : en:The new driver Stoffel Vandoorne
  291. 00:11:37.000 : en:New car livery and sponsorship
  292. 00:13:37.000 : en:Simulator training
  293. 00:17:25.000 : en:Sponsors and drivers
  294. 00:21:15.000 : en:Stoffel\'s media day at McLaren Technology Centre
  295. 00:24:37.000 : en:Stoffel\'s beginning
  296. 00:28:16.000 : en:Fernando Alonso\'s crash at Australian Grand Prix 2016
  297. 00:28:52.000 : en:End Credits
复制代码

大奖赛车手4k Grand.Prix.Driver.S01.2160p.AMZN.WEB-DL.x265.10bit.HDR10Plus.DDP5.1纪录片下载

大奖赛车手4k Grand.Prix.Driver.S01.2160p.AMZN.WEB-DL.x265.10bit.HDR10Plus.DDP5.1【11.74 GB】
[Hao4k]大奖赛车手4k Grand.Prix.Driver.S01.2160p.AMZN.WEB-DL.x265.10bit.HDR10Plus.torrent (59.56 KB)
分享到:  QQ好友和群QQ好友和群
回复

使用道具 举报

全部回复6

沙发
18520199909 发表于 2021-3-15 13:15:30 Hao4K手机版

18520199909 沙发

2021-3-15 13:15:30

暂时还没看到字幕
回复 支持 反对

使用道具 举报

板凳
SamDaBawz 发表于 2021-3-15 17:07:30

SamDaBawz 板凳

2021-3-15 17:07:30

看看天才的世界
回复 支持 反对

使用道具 举报

地板
老虎兄弟 发表于 2021-3-16 10:27:40

老虎兄弟 地板

2021-3-16 10:27:40

是说文件已经整合了中文字幕么?谢谢分享!
回复 支持 反对

使用道具 举报

5#
咱APE 发表于 2021-3-22 22:52:36

咱APE 5#

2021-3-22 22:52:36

谢谢啊 这是纪录片吧?
回复 支持 反对

使用道具 举报

6#
yaoshenjiang 发表于 2021-4-1 22:48:46 Hao4K手机版

yaoshenjiang 6#

2021-4-1 22:48:46

感谢楼主提供的资源
回复 支持 反对

使用道具 举报

7#
真的无所谓 发表于 8 小时前

真的无所谓 7#

8 小时前


看看天才的世界
回复 支持 反对

使用道具 举报

   发表回复

您需要登录后才可以回帖 登录 | 立即注册

返回列表 本版积分规则

:
白银玩家
:
未填写

主题

帖子

积分1018

图文推荐

  • 【已售】出售115永久皇冠VIP

    115网盘: 超大空间、高速传输、200G大文

  • 出开博尔Q20PLUS+戴尔UP2718q hdr1000显示

    设备升级了,转让纯一手开博尔Q20PLUS 4K硬盘播放

  • (已出,谢谢)出WD 8T紫盘,带6.6T资源。

    已出,谢谢关注! ======================

  • 出99新的Xbox one X港服,只买了两个月寻有

    只买了两个月的Xbox one X港服,寻有缘人,拿回来

  • 4K原盘900余部,顶级蓝光影视剧万余部,海

    感谢Hao4k专业平台的支持!个人喜爱影视剧收藏,

  • 在线客服

  • 返回顶部