微博 微信

Hao4K影音

[美剧] 佐伊的超凡歌单 第二季4k Zoeys.Extraordinary.Playlist.S02E01.2160p.美剧下载

前天 19:40 18543 8 |只看大图 回帖奖励 |倒序浏览 |阅读模式

大红色 楼主

2021-3-15 09:27:46

电视剧频道
电视剧封面:
电视剧名: 佐伊的超凡歌单 第二季4k
年  代: 2021  
国  家: 美国
类  别: 喜剧 
语  言: 英语
字  幕: 英文原版
上映日期: 2021-01-05
文件格式: mkv    
视频效果: 4K(3840x2160)    
资源大小: 4.45 GB
片  长: 40 分钟
导  演: 简·利维
剧情简介: -
佐伊的读心歌单/佐伊的超凡歌单 第二季4k Zoeys.Extraordinary.Playlist.S02E01.2160p.WEB.h265美剧信息
  1. Video
  2. ID : 1
  3. Format : HEVC
  4. Format/Info : High Efficiency Video Coding
  5. Format profile : Main@L5@High
  6. Codec ID : V_MPEGH/ISO/HEVC
  7. Duration : 42 min 52 s
  8. Bit rate : 14.4 Mb/s
  9. Width : 3 840 pixels
  10. Height : 2 160 pixels
  11. Display aspect ratio : 16:9
  12. Frame rate mode : Constant
  13. Frame rate : 23.976 (24000/1001) FPS
  14. Color space : YUV
  15. Chroma subsampling : 4:2:0
  16. Bit depth : 8 bits
  17. Bits/(Pixel*Frame) : 0.073
  18. Stream size : 4.32 GiB (97%)
  19. Language : English
  20. Default : Yes
  21. Forced : No
  22. Color range : Limited
  23. Color primaries : BT.709
  24. Transfer characteristics : BT.709
  25. Matrix coefficients : BT.709

  26. Audio
  27. ID : 2
  28. Format : AAC LC
  29. Format/Info : Advanced Audio Codec Low Complexity
  30. Codec ID : A_AAC-2
  31. Duration : 42 min 52 s
  32. Bit rate : 445 kb/s
  33. Channel(s) : 6 channels
  34. Channel layout : C L R Ls Rs LFE
  35. Sampling rate : 48.0 kHz
  36. Frame rate : 46.875 FPS (1024 SPF)
  37. Compression mode : Lossy
  38. Stream size : 137 MiB (3%)
  39. Language : English
  40. Default : Yes
  41. Forced : No

  42. Text
  43. ID : 3
  44. Format : UTF-8
  45. Codec ID : S_TEXT/UTF8
  46. Codec ID/Info : UTF-8 Plain Text
  47. Duration : 42 min 22 s
  48. Bit rate : 95 b/s
  49. Count of elements : 1019
  50. Stream size : 29.7 KiB (0%)
  51. Title : English [SDH]
  52. Language : English
  53. Default : No
  54. Forced : No
复制代码

佐伊的读心歌单/佐伊的超凡歌单 第二季4k Zoeys.Extraordinary.Playlist.S02E01.2160p.WEB.h265美剧下载

佐伊的超凡歌单 第二季4k Zoeys.Extraordinary.Playlist.S02E01.2160p.WEB.h265【4.45 GB】
[Hao4k]佐伊的超凡歌单 第二季4k Zoeys.Extraordinary.Playlist.S02E01.2160p.WEB.h26.torrent (45.07 KB)
回复

使用道具 举报

全部回复8

咆哮的麦霸 发表于 2021-3-15 09:28:48

咆哮的麦霸 沙发

2021-3-15 09:28:48

谢谢大佬分享
回复 支持 反对

使用道具 举报

chbo 发表于 2021-3-15 11:20:30

chbo 板凳

2021-3-15 11:20:30

谢谢
分享
回复 支持 反对

使用道具 举报

ywf6168 发表于 2021-3-15 12:08:05

ywf6168 地板

2021-3-15 12:08:05

谢谢分享好剧
回复 支持 反对

使用道具 举报

N大大 发表于 2021-3-23 16:36:46

N大大 5#

2021-3-23 16:36:46

谢谢分享啊
回复 支持 反对

使用道具 举报

witkenan 发表于 2021-3-24 08:30:32

witkenan 6#

2021-3-24 08:30:32

没有第二集呀,是不是漏发啦
回复 支持 反对

使用道具 举报

mpjk008 发表于 2021-3-29 22:52:34

mpjk008 7#

2021-3-29 22:52:34

感谢分享!
回复 支持 反对

使用道具 举报

lianxi68 发表于 前天 16:47

lianxi68 8#

前天 16:47

谢谢分享
回复 支持 反对

使用道具 举报

月光麦田 发表于 前天 19:40

月光麦田 9#

前天 19:40


谢谢分享好剧
回复 支持 反对

使用道具 举报

   发表回复

您需要登录后才可以回帖 登录 | 立即注册

返回列表 本版积分规则

:
白银玩家
:
未填写

主题

帖子

积分1018

图文推荐

  • 【已售】出售115永久皇冠VIP

    115网盘: 超大空间、高速传输、200G大文

  • 出开博尔Q20PLUS+戴尔UP2718q hdr1000显示

    设备升级了,转让纯一手开博尔Q20PLUS 4K硬盘播放

  • (已出,谢谢)出WD 8T紫盘,带6.6T资源。

    已出,谢谢关注! ======================

  • 出99新的Xbox one X港服,只买了两个月寻有

    只买了两个月的Xbox one X港服,寻有缘人,拿回来

  • 4K原盘900余部,顶级蓝光影视剧万余部,海

    感谢Hao4k专业平台的支持!个人喜爱影视剧收藏,

  • 在线客服

  • 返回顶部