微博 微信

Hao4K影音

[美剧] 为全人类 第二季4k For.All.Mankind.S02E01.2160p.美剧下载

4 天前 80865 12 |只看大图 回帖奖励 |倒序浏览 |阅读模式

大红色 楼主

2021-3-15 09:44:37

电视剧频道
电视剧封面:
电视剧名: 为全人类 第二季4k
年  代: 2021  
国  家: 美国
类  别: 科幻 
语  言: 英语
字  幕: -
上映日期: 2021-02-19
文件格式: mkv    
视频效果: 4K(3840x2160)    
资源大小: -
片  长: -
导  演: 迈克尔·莫里斯
剧情简介: 该剧设定自一个平行世界,在那个世界中苏美航天竞赛从未停止,苏联先于美国完成人类登月,于是美国决定要成为第一个把女人送上月球的国家。
为了全人类 / 太空骄子(港) / 太空使命(台)/为全人类 第二季4k For.All.Mankind.S02E01.2160p.ATVP.WEB-DL.DDP5.1.Atmos.DV.x265美剧信息
  1. Video
  2. ID : 1
  3. Format : HEVC
  4. Format/Info : High Efficiency Video Coding
  5. Format profile : Main 10@L5@High
  6. HDR format : Dolby Vision, Version 1.0, dvhe.05.06, BL+RPU
  7. Codec ID : dvhe
  8. Codec ID/Info : High Efficiency Video Coding with Dolby Vision
  9. Duration : 56 min 9 s
  10. Bit rate : 24.4 Mb/s
  11. Width : 3 840 pixels
  12. Height : 1 920 pixels
  13. Display aspect ratio : 2.000
  14. Frame rate mode : Constant
  15. Frame rate : 23.976 (24000/1001) FPS
  16. Color space : YUV
  17. Chroma subsampling : 4:2:0
  18. Bit depth : 10 bits
  19. Bits/(Pixel*Frame) : 0.138
  20. Stream size : 9.56 GiB (97%)
  21. Default : Yes
  22. Alternate group : 1
  23. Codec configuration box : hvcC+dvcC

  24. Audio
  25. ID : 2
  26. Format : E-AC-3 JOC
  27. Format/Info : Enhanced AC-3 with Joint Object Coding
  28. Commercial name : Dolby Digital Plus with Dolby Atmos
  29. Codec ID : ec-3
  30. Duration : 56 min 9 s
  31. Bit rate mode : Constant
  32. Bit rate : 768 kb/s
  33. Maximum bit rate : 811 kb/s
  34. Channel(s) : 6 channels
  35. Channel layout : L R C LFE Ls Rs
  36. Sampling rate : 48.0 kHz
  37. Frame rate : 31.250 FPS (1536 SPF)
  38. Compression mode : Lossy
  39. Stream size : 308 MiB (3%)
  40. Language : English
  41. Service kind : Complete Main
  42. Default : Yes
  43. Alternate group : 2
  44. Complexity index : Not present / 16
  45. Number of dynamic objects : 15
  46. Bed channel count : 1 channel
  47. Bed channel configuration : LFE

  48. Text #1
  49. ID : 3
  50. Format : Timed Text
  51. Codec ID : tx3g
  52. Duration : 56 min 3 s
  53. Bit rate mode : Variable
  54. Bit rate : 63 b/s
  55. Stream size : 26.0 KiB (0%)
  56. Title : Português (Brasil)
  57. Language : Portuguese
  58. Forced : No

  59. Text #2
  60. ID : 4
  61. Format : Timed Text
  62. Codec ID : tx3g
  63. Duration : 55 min 59 s
  64. Bit rate mode : Variable
  65. Bit rate : 62 b/s
  66. Stream size : 25.4 KiB (0%)
  67. Title : Français (Canadien)
  68. Language : French
  69. Forced : No

  70. Text #3
  71. ID : 5
  72. Format : Timed Text
  73. Codec ID : tx3g
  74. Duration : 56 min 3 s
  75. Bit rate mode : Variable
  76. Bit rate : 67 b/s
  77. Stream size : 27.6 KiB (0%)
  78. Title : Dansk
  79. Language : Danish
  80. Forced : No

  81. Text #4
  82. ID : 6
  83. Format : Timed Text
  84. Codec ID : tx3g
  85. Duration : 55 min 59 s
  86. Bit rate mode : Variable
  87. Bit rate : 75 b/s
  88. Stream size : 30.6 KiB (0%)
  89. Title : German
  90. Language : German
  91. Forced : No

  92. Text #5
  93. ID : 7
  94. Format : Timed Text
  95. Codec ID : tx3g
  96. Duration : 56 min 8 s
  97. Bit rate mode : Variable
  98. Bit rate : 72 b/s
  99. Stream size : 29.5 KiB (0%)
  100. Title : Español
  101. Language : Spanish
  102. Forced : No

  103. Text #6
  104. ID : 8
  105. Format : Timed Text
  106. Codec ID : tx3g
  107. Duration : 56 min 3 s
  108. Bit rate mode : Variable
  109. Bit rate : 63 b/s
  110. Stream size : 26.0 KiB (0%)
  111. Title : Suomi
  112. Language : Finnish
  113. Forced : No

  114. Text #7
  115. ID : 9
  116. Format : Timed Text
  117. Codec ID : tx3g
  118. Duration : 55 min 59 s
  119. Bit rate mode : Variable
  120. Bit rate : 62 b/s
  121. Stream size : 25.3 KiB (0%)
  122. Title : Français
  123. Language : French
  124. Forced : No

  125. Text #8
  126. ID : 10
  127. Format : Timed Text
  128. Codec ID : tx3g
  129. Duration : 56 min 3 s
  130. Bit rate mode : Variable
  131. Bit rate : 70 b/s
  132. Stream size : 28.8 KiB (0%)
  133. Title : Italiano
  134. Language : Italian
  135. Forced : No

  136. Text #9
  137. ID : 11
  138. Format : Timed Text
  139. Codec ID : tx3g
  140. Duration : 56 min 3 s
  141. Bit rate mode : Variable
  142. Bit rate : 58 b/s
  143. Stream size : 23.8 KiB (0%)
  144. Title : Nederlands
  145. Language : Dutch
  146. Forced : No

  147. Text #10
  148. ID : 12
  149. Format : Timed Text
  150. Codec ID : tx3g
  151. Duration : 56 min 3 s
  152. Bit rate mode : Variable
  153. Bit rate : 65 b/s
  154. Stream size : 26.7 KiB (0%)
  155. Title : Norsk
  156. Language : Norwegian
  157. Forced : No

  158. Text #11
  159. ID : 13
  160. Format : Timed Text
  161. Codec ID : tx3g
  162. Duration : 56 min 3 s
  163. Bit rate mode : Variable
  164. Bit rate : 67 b/s
  165. Stream size : 27.4 KiB (0%)
  166. Title : Português
  167. Language : Portuguese
  168. Forced : No

  169. Text #12
  170. ID : 14
  171. Format : Timed Text
  172. Codec ID : tx3g
  173. Duration : 54 min 54 s
  174. Bit rate mode : Variable
  175. Bit rate : 82 b/s
  176. Stream size : 32.8 KiB (0%)
  177. Title : English (SDH)
  178. Language : English
  179. Forced : No
  180. Text #13
  181. ID : 15
  182. Format : Timed Text
  183. Codec ID : tx3g
  184. Duration : 56 min 3 s
  185. Bit rate mode : Variable
  186. Bit rate : 69 b/s
  187. Stream size : 28.3 KiB (0%)
  188. Title : Español (Latinoamericano)
  189. Language : Spanish
  190. Forced : No

  191. Text #14
  192. ID : 16
  193. Format : Timed Text
  194. Codec ID : tx3g
  195. Duration : 56 min 3 s
  196. Bit rate mode : Variable
  197. Bit rate : 68 b/s
  198. Stream size : 27.8 KiB (0%)
  199. Title : Svenska
  200. Language : Swedish
  201. Forced : No
复制代码

为了全人类 / 太空骄子(港) / 太空使命(台)/为全人类 第二季4k For.All.Mankind.S02E01.2160p.ATVP.WEB-DL.DDP5.1.Atmos.DV.x265美剧下载

为全人类 第二季4k For.All.Mankind.S02E01.2160p.ATVP.WEB-DL.DDP5.1.Atmos.DV.x265【10.08 GB】
[Hao4k]为全人类 第二季4k For.All.Mankind.S02E01.2160p.ATVP.WEB-DL.DDP5.1.Atmos.D.torrent (50.99 KB)
回复

使用道具 举报

全部回复12

czzlx 发表于 2021-3-18 15:33:50

czzlx 沙发

2021-3-18 15:33:50

楼主,第一季和第二季的中文字幕有吗?
回复 支持 反对

使用道具 举报

ccdba 发表于 2021-3-19 17:01:32

ccdba 板凳

2021-3-19 17:01:32

为什么我放出来颜色不对,这是杜比视界的视频?
回复 支持 反对

使用道具 举报

N大大 发表于 2021-3-20 16:19:49

N大大 地板

2021-3-20 16:19:49

谢谢分享啦。
回复 支持 反对

使用道具 举报

科技小迷弟 发表于 2021-3-22 00:18:25

科技小迷弟 5#

2021-3-22 00:18:25

第一季我记得是内置中文的,第二季莫名其妙没了
回复 支持 反对

使用道具 举报

BG9BJZ 发表于 2021-3-22 19:16:46

BG9BJZ 6#

2021-3-22 19:16:46

感谢分享!
回复 支持 反对

使用道具 举报

N大大 发表于 2021-3-23 16:36:18

N大大 7#

2021-3-23 16:36:18

谢谢分享啊
回复 支持 反对

使用道具 举报

Kevin116 发表于 2021-3-27 14:17:08

Kevin116 8#

2021-3-27 14:17:08

ccdba 发表于 2021-3-19 17:01
为什么我放出来颜色不对,这是杜比视界的视频?

我也是欸 有什么解决办法吗
回复 支持 反对

使用道具 举报

吴摔锅 发表于 2021-3-29 11:36:25

吴摔锅 9#

2021-3-29 11:36:25

看了介绍,把S01和S02一起下载。
回复 支持 反对

使用道具 举报

mpjk008 发表于 2021-3-29 22:52:22

mpjk008 10#

2021-3-29 22:52:22

感谢分享!
回复 支持 反对

使用道具 举报

juicydan 发表于 2021-3-31 19:31:02

juicydan 11#

2021-3-31 19:31:02

Kevin116 发表于 2021-3-27 14:17
我也是欸 有什么解决办法吗

我也是!杜比视界的问题?
回复 支持 反对

使用道具 举报

dtses731 发表于 2021-4-6 23:47:26

dtses731 12#

2021-4-6 23:47:26

下载的前4集色彩有问题,是否杜比视界的原因?我电视是9500H,是支持杜比视界的,但色彩就是不对,严重偏紫
回复 支持 反对

使用道具 举报

咪多 发表于 4 天前

咪多 13#

4 天前

第六集呢?不出了......
回复 支持 反对

使用道具 举报

   发表回复

您需要登录后才可以回帖 登录 | 立即注册

返回列表 本版积分规则

:
白银玩家
:
未填写

主题

帖子

积分1018

图文推荐

  • 【已售】出售115永久皇冠VIP

    115网盘: 超大空间、高速传输、200G大文

  • 出开博尔Q20PLUS+戴尔UP2718q hdr1000显示

    设备升级了,转让纯一手开博尔Q20PLUS 4K硬盘播放

  • 出99新的Xbox one X港服,只买了两个月寻有

    只买了两个月的Xbox one X港服,寻有缘人,拿回来

  • (已出,谢谢)出WD 8T紫盘,带6.6T资源。

    已出,谢谢关注! ======================

  • 4K原盘900余部,顶级蓝光影视剧万余部,海

    感谢Hao4k专业平台的支持!个人喜爱影视剧收藏,

  • 在线客服

  • 返回顶部