微博 微信

Hao4K影音

电影频道
电影封面:
片  名: 世界末日4k
电影分类: 科幻 灾难 
国  家: 美国 
年  代: 90年代
分 辨 率: 4K(3840x2160)
电影格式: MKV|REMUX 
画质标准: 其他 
音质编码: 其他AAC 
电影声道: 5.1声道 
帧数/FPS: 23.976 帧
电影语言: 英文原版 
资源大小: 7.3 GB
导  演: 迈克尔·贝
豆瓣评分: 7.8 分
中文字幕: /thread-55236-1-1.html
剧情简介:  发现一颗巨大的陨石正朝地球方向奔来,并将于十八日内撞上地球时,美国太空总署想出阻止该陨石与地球相撞造成人类毁灭的办法:派人登陆陨石的表面,钻洞贯穿至陨石的地心,放入核弹引爆。但这一切必须要在十八日内完成。
  钻油井工头(布鲁斯•威利斯)被委以重任,而他的下属(本•阿弗莱特)恰也是其女儿(丽芙•泰勒)的男朋友,此次任务能否成功完成,关系到女儿下半辈子的幸福。为此,他和下属接受了太空总署的高强度的训练,以期一夜之间从打井工人变成救世英雄。
绝世天劫(港) / 陨石大冲撞 / 最后决战 / 大决战/世界末日4k Armageddon 1998 2160p.BluRay AI x265 HEVC 10bit DD 5.1电影信息
  1. Video
  2. ID : 1
  3. Format : HEVC
  4. Format/Info : High Efficiency Video Coding
  5. Format profile : Main [email protected]@Main
  6. Codec ID : V_MPEGH/ISO/HEVC
  7. Duration : 2 h 30 min
  8. Bit rate : 6 001 kb/s
  9. Width : 3 840 pixels
  10. Height : 1 600 pixels
  11. Display aspect ratio : 2.40:1
  12. Frame rate mode : Constant
  13. Frame rate : 23.976 (24000/1001) FPS
  14. Color space : YUV
  15. Chroma subsampling : 4:2:0
  16. Bit depth : 10 bits
  17. Bits/(Pixel*Frame) : 0.041
  18. Stream size : 6.32 GiB (87%)
  19. Writing library : x265 3.2+9-971180b100f8:[Windows][GCC 9.2.0][64 bit] 10bit
  20. Encoding settings : cpuid=1111039 / frame-threads=3 / numa-pools=12 / wpp / no-pmode / no-pme / no-psnr / ssim / log-level=2 / input-csp=1 / input-res=3840x1600 / interlace=0 / total-frames=216988 / level-idc=0 / high-tier=1 / uhd-bd=0 / ref=4 / no-allow-non-conformance / no-repeat-headers / annexb / no-aud / no-hrd / info / hash=0 / no-temporal-layers / open-gop / min-keyint=23 / keyint=250 / gop-lookahead=0 / bframes=8 / b-adapt=2 / b-pyramid / bframe-bias=40 / rc-lookahead=80 / lookahead-slices=4 / scenecut=40 / radl=0 / no-splice / no-intra-refresh / ctu=64 / min-cu-size=8 / rect / no-amp / max-tu-size=32 / tu-inter-depth=1 / tu-intra-depth=1 / limit-tu=0 / rdoq-level=2 / dynamic-rd=0.00 / ssim-rd / signhide / no-tskip / nr-intra=0 / nr-inter=0 / constrained-intra / strong-intra-smoothing / max-merge=3 / limit-refs=3 / limit-modes / me=3 / subme=3 / merange=57 / temporal-mvp / no-frame-dup / no-hme / weightp / no-weightb / no-analyze-src-pics / deblock=0:0 / sao / no-sao-non-deblock / rd=4 / selective-sao=4 / early-skip / rskip / no-fast-intra / no-tskip-fast / no-cu-lossless / no-b-intra / splitrd-skip / rdpenalty=0 / psy-rd=2.45 / psy-rdoq=1.50 / no-rd-refine / no-lossless / cbqpoffs=0 / crqpoffs=0 / rc=abr / bitrate=6000 / qcomp=0.60 / qpstep=4 / stats-write=0 / stats-read=2 / cplxblur=20.0 / qblur=0.5 / ipratio=1.40 / pbratio=1.30 / aq-mode=3 / aq-strength=0.40 / cutree / zone-count=0 / no-strict-cbr / qg-size=32 / no-rc-grain / qpmax=69 / qpmin=0 / no-const-vbv / sar=0 / overscan=0 / videoformat=5 / range=0 / colorprim=2 / transfer=2 / colormatrix=2 / chromaloc=0 / display-window=0 / cll=0,0 / min-luma=0 / max-luma=1023 / log2-max-poc-lsb=8 / vui-timing-info / vui-hrd-info / slices=1 / no-opt-qp-pps / no-opt-ref-list-length-pps / multi-pass-opt-rps / scenecut-bias=0.05 / no-opt-cu-delta-qp / no-aq-motion / no-hdr / no-hdr-opt / no-dhdr10-opt / no-idr-recovery-sei / analysis-load / analysis-reuse-level=10 / scale-factor=0 / refine-intra=0 / refine-inter=0 / refine-mv=1 / refine-ctu-distortion=0 / limit-sao / ctu-info=0 / no-lowpass-dct / refine-analysis-type=0 / copy-pic=1 / max-ausize-factor=1.0 / no-dynamic-refine / no-single-sei / no-hevc-aq / no-svt / no-field / qp-adaptation-range=1.00
  21. Default : Yes
  22. Forced : No

  23. Audio #1
  24. ID : 2
  25. Format : AC-3
  26. Format/Info : Audio Coding 3
  27. Mode extension : CM (complete main)
  28. Format settings, Endianness : Big
  29. Codec ID : A_AC3
  30. Duration : 2 h 30 min
  31. Bit rate mode : Constant
  32. Bit rate : 448 kb/s
  33. Channel(s) : 6 channels
  34. Channel positions : Front: L C R, Side: L R, LFE
  35. Sampling rate : 48.0 kHz
  36. Frame rate : 31.250 FPS (1536 spf)
  37. Bit depth : 16 bits
  38. Compression mode : Lossy
  39. Stream size : 483 MiB (6%)
  40. Language : English
  41. Default : No
  42. Forced : No

  43. Audio #2
  44. ID : 3
  45. Format : AAC
  46. Format/Info : Advanced Audio Codec
  47. Format profile : LC
  48. Codec ID : A_AAC
  49. Duration : 2 h 30 min
  50. Bit rate : 103 kb/s
  51. Channel(s) : 2 channels
  52. Channel positions : Front: L R
  53. Sampling rate : 48.0 kHz
  54. Frame rate : 46.875 FPS (1024 spf)
  55. Compression mode : Lossy
  56. Delay relative to video : 9 ms
  57. Stream size : 111 MiB (1%)
  58. Language : Italian
  59. Default : No
  60. Forced : No

  61. Audio #3
  62. ID : 4
  63. Format : AAC
  64. Format/Info : Advanced Audio Codec
  65. Format profile : LC
  66. Codec ID : A_AAC
  67. Duration : 2 h 30 min
  68. Bit rate : 110 kb/s
  69. Channel(s) : 2 channels
  70. Channel positions : Front: L R
  71. Sampling rate : 48.0 kHz
  72. Frame rate : 46.875 FPS (1024 spf)
  73. Compression mode : Lossy
  74. Delay relative to video : 9 ms
  75. Stream size : 119 MiB (2%)
  76. Language : Czech
  77. Default : No
  78. Forced : No

  79. Audio #4
  80. ID : 5
  81. Format : AAC
  82. Format/Info : Advanced Audio Codec
  83. Format profile : LC
  84. Codec ID : A_AAC
  85. Duration : 2 h 30 min
  86. Bit rate : 104 kb/s
  87. Channel(s) : 2 channels
  88. Channel positions : Front: L R
  89. Sampling rate : 48.0 kHz
  90. Frame rate : 46.875 FPS (1024 spf)
  91. Compression mode : Lossy
  92. Delay relative to video : 9 ms
  93. Stream size : 112 MiB (2%)
  94. Language : Russian
  95. Default : No
  96. Forced : No

  97. Subtitle #1
  98. ID : 6
  99. Format : PGS
  100. Muxing mode : zlib
  101. Codec ID : S_HDMV/PGS
  102. Codec ID/Info : Picture based subtitle format used on BDs/HD-DVDs
  103. Duration : 2 h 29 min
  104. Bit rate : 52.2 kb/s
  105. Count of elements : 4622
  106. Stream size : 55.8 MiB (1%)
  107. Language : English
  108. Default : No
  109. Forced : No

  110. Subtitle #2
  111. ID : 7
  112. Format : VobSub
  113. Muxing mode : zlib
  114. Codec ID : S_VOBSUB
  115. Codec ID/Info : Picture based subtitle format used on DVDs
  116. Duration : 2 h 29 min
  117. Bit rate : 15.0 kb/s
  118. Count of elements : 2576
  119. Stream size : 16.0 MiB (0%)
  120. Language : English
  121. Default : No
  122. Forced : No

  123. Subtitle #3
  124. ID : 8
  125. Format : VobSub
  126. Muxing mode : zlib
  127. Codec ID : S_VOBSUB
  128. Codec ID/Info : Picture based subtitle format used on DVDs
  129. Duration : 2 h 22 min
  130. Bit rate : 10.1 kb/s
  131. Count of elements : 1589
  132. Stream size : 10.3 MiB (0%)
  133. Language : Italian
  134. Default : No
  135. Forced : No

  136. Subtitle #4
  137. ID : 9
  138. Format : VobSub
  139. Muxing mode : zlib
  140. Codec ID : S_VOBSUB
  141. Codec ID/Info : Picture based subtitle format used on DVDs
  142. Duration : 1 h 44 min
  143. Bit rate : 107 b/s
  144. Count of elements : 16
  145. Stream size : 82.1 KiB (0%)
  146. Language : Italian
  147. Default : No
  148. Forced : No

  149. Subtitle #5
  150. ID : 10
  151. Format : VobSub
  152. Muxing mode : zlib
  153. Codec ID : S_VOBSUB
  154. Codec ID/Info : Picture based subtitle format used on DVDs
  155. Duration : 2 h 22 min
  156. Bit rate : 10.9 kb/s
  157. Count of elements : 1880
  158. Stream size : 11.1 MiB (0%)
  159. Language : Portuguese
  160. Default : No
  161. Forced : No

  162. Subtitle #6
  163. ID : 11
  164. Format : VobSub
  165. Muxing mode : zlib
  166. Codec ID : S_VOBSUB
  167. Codec ID/Info : Picture based subtitle format used on DVDs
  168. Duration : 57 min 15 s
  169. Bit rate : 39 b/s
  170. Count of elements : 3
  171. Stream size : 16.7 KiB (0%)
  172. Language : Polish
  173. Default : No
  174. Forced : No

  175. Subtitle #7
  176. ID : 12
  177. Format : VobSub
  178. Muxing mode : zlib
  179. Codec ID : S_VOBSUB
  180. Codec ID/Info : Picture based subtitle format used on DVDs
  181. Duration : 2 h 29 min
  182. Bit rate : 8 163 b/s
  183. Count of elements : 1467
  184. Stream size : 8.73 MiB (0%)
  185. Language : Czech
  186. Default : No
  187. Forced : No

  188. Subtitle #8
  189. ID : 13
  190. Format : VobSub
  191. Muxing mode : zlib
  192. Codec ID : S_VOBSUB
  193. Codec ID/Info : Picture based subtitle format used on DVDs
  194. Duration : 2 h 28 min
  195. Bit rate : 37 b/s
  196. Count of elements : 9
  197. Stream size : 40.5 KiB (0%)
  198. Language : Czech
  199. Default : No
  200. Forced : No

  201. Subtitle #9
  202. ID : 14
  203. Format : VobSub
  204. Muxing mode : zlib
  205. Codec ID : S_VOBSUB
  206. Codec ID/Info : Picture based subtitle format used on DVDs
  207. Duration : 2 h 22 min
  208. Bit rate : 9 256 b/s
  209. Count of elements : 1775
  210. Stream size : 9.45 MiB (0%)
  211. Language : Hungarian
  212. Default : No
  213. Forced : No

  214. Subtitle #10
  215. ID : 15
  216. Format : VobSub
  217. Muxing mode : zlib
  218. Codec ID : S_VOBSUB
  219. Codec ID/Info : Picture based subtitle format used on DVDs
  220. Duration : 2 h 5 min
  221. Bit rate : 95 b/s
  222. Count of elements : 20
  223. Stream size : 87.9 KiB (0%)
  224. Language : Hungarian
  225. Default : No
  226. Forced : No

  227. Subtitle #11
  228. ID : 16
  229. Format : VobSub
  230. Muxing mode : zlib
  231. Codec ID : S_VOBSUB
  232. Codec ID/Info : Picture based subtitle format used on DVDs
  233. Duration : 2 h 22 min
  234. Bit rate : 6 895 b/s
  235. Count of elements : 1640
  236. Stream size : 7.04 MiB (0%)
  237. Language : Polish
  238. Default : No
  239. Forced : No

  240. Subtitle #12
  241. ID : 17
  242. Format : VobSub
  243. Muxing mode : zlib
  244. Codec ID : S_VOBSUB
  245. Codec ID/Info : Picture based subtitle format used on DVDs
  246. Duration : 2 h 22 min
  247. Bit rate : 7 209 b/s
  248. Count of elements : 1948
  249. Stream size : 7.36 MiB (0%)
  250. Language : Hebrew
  251. Default : No
  252. Forced : No

  253. Subtitle #13
  254. ID : 18
  255. Format : VobSub
  256. Muxing mode : zlib
  257. Codec ID : S_VOBSUB
  258. Codec ID/Info : Picture based subtitle format used on DVDs
  259. Duration : 2 h 22 min
  260. Bit rate : 10.5 kb/s
  261. Count of elements : 1687
  262. Stream size : 10.8 MiB (0%)
  263. Language : Greek
  264. Default : No
  265. Forced : No

  266. Subtitle #14
  267. ID : 19
  268. Format : VobSub
  269. Muxing mode : zlib
  270. Codec ID : S_VOBSUB
  271. Codec ID/Info : Picture based subtitle format used on DVDs
  272. Duration : 2 h 29 min
  273. Bit rate : 13.6 kb/s
  274. Count of elements : 2344
  275. Stream size : 14.5 MiB (0%)
  276. Language : Turkish
  277. Default : No
  278. Forced : No

  279. Subtitle #15
  280. ID : 20
  281. Format : VobSub
  282. Muxing mode : zlib
  283. Codec ID : S_VOBSUB
  284. Codec ID/Info : Picture based subtitle format used on DVDs
  285. Duration : 2 h 29 min
  286. Bit rate : 13.3 kb/s
  287. Count of elements : 2348
  288. Stream size : 14.2 MiB (0%)
  289. Language : Slovak
  290. Default : No
  291. Forced : No

  292. Subtitle #16
  293. ID : 21
  294. Format : VobSub
  295. Muxing mode : zlib
  296. Codec ID : S_VOBSUB
  297. Codec ID/Info : Picture based subtitle format used on DVDs
  298. Duration : 2 h 29 min
  299. Bit rate : 13.5 kb/s
  300. Count of elements : 2347
  301. Stream size : 14.5 MiB (0%)
  302. Language : Russian
  303. Default : No
  304. Forced : No

  305. Subtitle #17
  306. ID : 22
  307. Format : VobSub
  308. Muxing mode : zlib
  309. Codec ID : S_VOBSUB
  310. Codec ID/Info : Picture based subtitle format used on DVDs
  311. Duration : 2 h 29 min
  312. Bit rate : 14.0 kb/s
  313. Count of elements : 2350
  314. Stream size : 15.0 MiB (0%)
  315. Language : Ukrainian
  316. Default : No
  317. Forced : No
  318. Menu
  319. 00:00:00.000 : en:Chapter 01
  320. 00:06:21.255 : en:Chapter 02
  321. 00:11:56.298 : en:Chapter 03
  322. 00:23:14.601 : en:Chapter 04
  323. 00:28:47.058 : en:Chapter 05
  324. 00:35:30.586 : en:Chapter 06
  325. 00:39:57.520 : en:Chapter 07
  326. 00:45:55.919 : en:Chapter 08
  327. 00:48:40.709 : en:Chapter 09
  328. 00:51:19.534 : en:Chapter 10
  329. 00:56:26.925 : en:Chapter 11
  330. 00:59:10.838 : en:Chapter 12
  331. 01:07:15.322 : en:Chapter 13
  332. 01:11:16.647 : en:Chapter 14
  333. 01:21:02.816 : en:Chapter 15
  334. 01:24:10.628 : en:Chapter 16
  335. 01:32:42.682 : en:Chapter 17
  336. 01:41:15.194 : en:Chapter 18
  337. 01:51:56.084 : en:Chapter 19
  338. 01:55:56.157 : en:Chapter 20
  339. 01:59:27.535 : en:Chapter 21
  340. 02:00:37.271 : en:Chapter 22
  341. 02:05:21.430 : en:Chapter 23
  342. 02:08:14.561 : en:Chapter 24
  343. 02:12:50.837 : en:Chapter 25
  344. 02:15:00.342 : en:Chapter 26
  345. 02:23:56.044 : en:Chapter 27
复制代码

绝世天劫(港) / 陨石大冲撞 / 最后决战 / 大决战/世界末日4k Armageddon 1998 2160p.BluRay AI x265 HEVC 10bit DD 5.1电影下载

世界末日4k Armageddon 1998 2160p.BluRay AI x265 HEVC 10bit DD 5.1【7.3 GB】
世界末日4k.txt (89 Bytes)
回复

使用道具 举报

jack081022 发表于 2021-3-16 13:26:53

jack081022 推荐

2021-3-16 13:26:53

这个蓝光转的估计
回复 支持 1 反对 0

使用道具 举报

zdm66 发表于 2021-3-22 09:52:28

zdm66 推荐

2021-3-22 09:52:28

一看7G,我就不想要了,我原先的蓝光盘还30多G呢。                                                               
回复 支持 反对

使用道具 举报

全部回复24

lywzj238 发表于 2021-3-16 07:15:16

lywzj238 沙发

2021-3-16 07:15:16

谢谢分享好电影
回复 支持 反对

使用道具 举报

农夫舅舅 发表于 2021-3-16 08:48:19 Hao4K手机版

农夫舅舅 板凳

2021-3-16 08:48:19

经典
怎么只有7g?
回复 支持 反对

使用道具 举报

woyttxs 发表于 2021-3-16 10:02:18

woyttxs 地板

2021-3-16 10:02:18

真的很不错,多谢了
回复 支持 反对

使用道具 举报

leiting24 发表于 2021-3-16 10:49:20

leiting24 5#

2021-3-16 10:49:20

一部经典的老影片
回复 支持 反对

使用道具 举报

devihhy 发表于 2021-3-16 13:24:01

devihhy 6#

2021-3-16 13:24:01

有没码率高一些的!?
回复 支持 反对

使用道具 举报

苏默金武 发表于 2021-3-16 14:39:54

苏默金武 8#

2021-3-16 14:39:54

加油,期待更多好片片!!!
回复 支持 反对

使用道具 举报

小咪渣 发表于 2021-3-16 14:43:33

小咪渣 9#

2021-3-16 14:43:33


加油,期待更多好片片!!!
回复 支持 反对

使用道具 举报

opkqq00 发表于 2021-3-16 16:23:49

opkqq00 10#

2021-3-16 16:23:49


谢谢您的分享!
回复 支持 反对

使用道具 举报

hu58 发表于 2021-3-16 17:01:59

hu58 11#

2021-3-16 17:01:59

这种AI修复就不要发了吧
回复 支持 反对

使用道具 举报

cardinlai 发表于 2021-3-16 20:01:46

cardinlai 12#

2021-3-16 20:01:46

加油,期待更多好片片!!!
回复 支持 反对

使用道具 举报

漯河水煎包 发表于 2021-3-16 23:38:05

漯河水煎包 13#

2021-3-16 23:38:05

雷鸟R625C,下载试试机~
回复 支持 反对

使用道具 举报

kimimkjk 发表于 2021-3-17 18:11:42

kimimkjk 14#

2021-3-17 18:11:42

加油,期待更多好片
回复 支持 反对

使用道具 举报

5689564567 发表于 2021-3-17 21:45:34

5689564567 15#

2021-3-17 21:45:34

加油,期待更多好片
回复 支持 反对

使用道具 举报

ZYB_HOME 发表于 2021-3-18 14:57:21

ZYB_HOME 16#

2021-3-18 14:57:21

谢谢分享好电影
回复 支持 反对

使用道具 举报

世爵39 发表于 2021-3-19 08:19:48

世爵39 17#

2021-3-19 08:19:48

又一部经典之中影片
回复 支持 反对

使用道具 举报

nt207 发表于 2021-3-19 09:29:30

nt207 18#

2021-3-19 09:29:30

经典老片,感谢分享
回复 支持 反对

使用道具 举报

   发表回复

您需要登录后才可以回帖 登录 | 立即注册

返回列表 本版积分规则

  • 在线客服

  • 返回顶部