微博 微信

Hao4K影音

[字幕音轨相关] 使用MKVtoolnix封装了字幕后电脑端无法播放

2021-3-17 12:24:24 5909 27 回帖奖励 |倒序浏览 |阅读模式

BryanMTS 楼主

2021-3-17 10:00:34

想问一下,我用MKVtoolnix V55封装猫和老鼠4k的电影和字幕,封装完成后用potplayer播放,黑屏无法播放。我再将这个字幕和另一个几百M的别的视频混流,可以播放。想问问大神们为啥猫和老鼠的那次混流无法播放啊?谢谢!
5 \+ L8 S6 e2 U; p5 Z
回复

使用道具 举报

qazxderfvbhy 发表于 2021-3-17 11:19:20

qazxderfvbhy 推荐

2021-3-17 11:19:20

BryanMTS 发表于 2021-3-17 11:16
, B* I+ n- d. n+ N. f, J0 v??我是无法播放混流后视频

# x. ]- q7 D  @- ?那要看看你是怎么混流的,混流时勾选了哪些东西
回复 支持 1 反对 0

使用道具 举报

mehottoo 发表于 2021-3-17 10:57:33

mehottoo 推荐

2021-3-17 10:57:33

类似于下面这种信息,PotPlayer播放界面下同时按下“Ctrl”“F1”就可以查看。
, v$ J. L/ J7 Q0 c" o7 ]9 f
. |  F8 e. I, p9 j* Q/ KGeneral; k" Z/ f9 }8 F
Unique ID                      : 119788563392390798774080089558784516376 (0x5A1E7028D87501FCB3FB8FA8DAA9A118)* ^+ B( E8 }8 C
Complete name                  : F:\迅雷下载\疾速追杀3.2160P\极速追杀3.John.Wick.Chapter.3.Parabellum.2019.2160p.BluRay.x265.10bit.HDR.DTS-HD.MA.TrueHD.7.1.Atmos-SWTYBLZ.mkv8 l' b4 W( Q6 I" w; f; t7 q8 e; T
Format                         : Matroska. X' F8 V# H3 J/ \  ^4 s: _: `
Format version                 : Version 4
/ p) e3 P' d; KFile size                      : 20.2 GiB
: Z( P7 r2 p7 K) E+ nDuration                       : 2 h 10 min9 j/ ~% v; Q- U$ b+ ]; L
Overall bit rate mode          : Variable5 I- O7 f( ?- |3 V  R% `/ T
Overall bit rate               : 22.2 Mb/s0 m# x% ]5 O4 ~0 U" U0 E. p
Movie name                     : John.Wick.Chapter.3.Parabellum.2019.2160p.BluRay.x265.10bit.HDR.DTS-HD.MA.TrueHD.7.1.Atmos-SWTYBLZ. O  ]7 n( ^0 x. i7 \, I& p+ {
Encoded date                   : UTC 2021-03-10 08:10:44% D! R# w  m9 _2 n7 K1 }9 T7 ]0 |5 v
Writing application            : mkvmerge v43.0.0 ('The Quartermaster') 64-bit5 }* e# |' _6 l# H* M
Writing library                : libebml v1.3.10 + libmatroska v1.5.28 C& O$ i& W% s+ E
Cover                          : Yes
0 T( o0 o/ ]8 ^Attachments                    : cover_land.jpg / small_cover.jpg / small_cover_land.jpg / cover.jpg! _' O, Z! A; K6 E' @1 C& w

4 S, ~6 Y1 V7 p7 Z5 O* r' RVideo
- B5 M6 d" v! w0 nID                             : 12 h9 h9 Z7 n6 c, I- D0 \/ ~
Format                         : HEVC, L' a7 b" A( S
Format/Info                    : High Efficiency Video Coding
. h. g/ d/ n- Q6 n) eFormat profile                 : Main 10@L5.1@High
1 ?* T1 X; `" Y# q& }HDR format                     : SMPTE ST 2086, HDR10 compatible
! Q/ E  j1 y* YCodec ID                       : V_MPEGH/ISO/HEVC9 ~- W4 O( e( p: Q& M1 Z+ Y4 M% n
Duration                       : 2 h 10 min- u0 v0 S+ V/ Y+ V# t
Bit rate                       : 18.1 Mb/s9 v$ p! q1 W& v7 d- @
Width                          : 3 840 pixels
3 y7 r: e( v; `5 _. C3 E, @Height                         : 1 600 pixels
* Q7 ^$ N% J9 I) ~1 k1 u5 JDisplay aspect ratio           : 2.40:15 E# e# T. R; ^" I0 o8 b7 C" j
Frame rate mode                : Constant' E6 J5 X5 B5 A$ K5 x' {2 b. d& o
Frame rate                     : 23.976 (24000/1001) FPS
: z( o& v  {/ {3 K" \7 a% d% wColor space                    : YUV
1 G% d9 O# f/ ]Chroma subsampling             : 4:2:0 (Type 2)+ l* S8 f7 E/ B
Bit depth                      : 10 bits
3 E8 ]1 T. O- G# eBits/(Pixel*Frame)             : 0.123
9 f: F0 u& V9 b/ ^Stream size                    : 16.5 GiB (82%)
: X; i2 _; @/ Q! BTitle                          : John.Wick.Chapter.3.Parabellum.2019.2160p.BluRay.x265.10bit.HDR.DTS-HD.MA.TrueHD.7.1.Atmos-SWTYBLZ
1 g! }; f& c2 y$ SWriting library                : x265 3.0_Au+10-74a8672ea4f7:[Windows][GCC 8.2.1][64 bit] 10bit. g. S, ]; ^" n: c
Encoding settings              : cpuid=1111039 / frame-threads=16 / numa-pools=24,24,24,24 / wpp / no-pmode / no-pme / no-psnr / no-ssim / log-level=2 / input-csp=1 / input-res=3840x1600 / interlace=0 / total-frames=0 / level-idc=51 / high-tier=1 / uhd-bd=0 / ref=3 / no-allow-non-conformance / repeat-headers / annexb / aud / hrd / info / hash=0 / no-temporal-layers / no-open-gop / min-keyint=1 / keyint=24 / gop-lookahead=0 / bframes=4 / b-adapt=2 / b-pyramid / bframe-bias=0 / rc-lookahead=25 / lookahead-slices=4 / scenecut=40 / radl=0 / no-splice / no-intra-refresh / ctu=64 / min-cu-size=8 / no-rect / no-amp / max-tu-size=32 / tu-inter-depth=1 / tu-intra-depth=1 / limit-tu=0 / rdoq-level=0 / dynamic-rd=0.00 / no-ssim-rd / signhide / no-tskip / nr-intra=0 / nr-inter=0 / no-constrained-intra / strong-intra-smoothing / max-merge=2 / limit-refs=3 / no-limit-modes / me=1 / subme=2 / merange=57 / temporal-mvp / weightp / no-weightb / no-analyze-src-pics / deblock=0:0 / no-sao / no-sao-non-deblock / rd=3 / no-early-skip / rskip / no-fast-intra / no-tskip-fast / no-cu-lossless / no-b-intra / no-splitrd-skip / rdpenalty=0 / psy-rd=2.00 / psy-rdoq=0.00 / no-rd-refine / no-lossless / cbqpoffs=0 / crqpoffs=0 / rc=crf / crf=16.0 / qcomp=0.60 / qpstep=4 / stats-write=0 / stats-read=0 / vbv-maxrate=160000 / vbv-bufsize=160000 / vbv-init=0.9 / crf-max=0.0 / crf-min=0.0 / ipratio=1.40 / pbratio=1.30 / aq-mode=1 / aq-strength=1.00 / cutree / zone-count=0 / no-strict-cbr / qg-size=32 / no-rc-grain / qpmax=69 / qpmin=0 / no-const-vbv / sar=1 / overscan=0 / videoformat=5 / range=0 / colorprim=9 / transfer=16 / colormatrix=9 / chromaloc=1 / chromaloc-top=2 / chromaloc-bottom=2 / display-window=0 / master-display=G(13250,34500)B(7500,3000)R(34000,16000)WP(15635,16450)L(10000000,10) / max-cll=1000,358 / min-luma=0 / max-luma=1023 / log2-max-poc-lsb=8 / vui-timing-info / vui-hrd-info / slices=1 / opt-qp-pps / opt-ref-list-length-pps / no-multi-pass-opt-rps / scenecut-bias=0.05 / no-opt-cu-delta-qp / no-aq-motion / hdr / hdr-opt / no-dhdr10-opt / no-idr-recovery-sei / analysis-reuse-level=5 / scale-factor=0 / refine-intra=0 / refine-inter=0 / refine-mv=0 / refine-ctu-distortion=0 / no-limit-sao / ctu-info=0 / no-lowpass-dct / refine-analysis-type=0 / copy-pic=1 / max-ausize-factor=1.0 / no-dynamic-refine / no-single-sei / no-hevc-aq / no-svt / qp-adaptation-range=1.00; B' v; u0 A; g  {; b, h
Default                        : Yes! H/ M, s4 B6 o8 W' N0 W
Forced                         : No) H+ L, Z6 P# o
Color range                    : Limited
: U# m* }( F  D, Z  y( m2 l1 f) mColor primaries                : BT.2020: s. S( d' |4 x& a! B- j7 a: i/ B
Transfer characteristics       : PQ' T5 e1 L/ Z3 e, t1 B, R/ c, u
Matrix coefficients            : BT.2020 non-constant
6 G5 T; M0 \  A& I' ]Mastering display color primar : Display P3
" b6 f5 O% k1 B" b: s5 r5 nMastering display luminance    : min: 0.0010 cd/m2, max: 1000 cd/m2
, b3 f3 d; L+ Z& ]Maximum Content Light Level    : 1000 cd/m22 s3 u) A6 N6 z5 j
Maximum Frame-Average Light Le : 358 cd/m2
  J# B: B4 J# p$ ]/ o/ c3 X0 `) K7 D' }! O9 B
Audio2 F1 ]- J. \6 r5 b  [. A, O
ID                             : 2. x7 z5 Z* q2 X0 a4 \9 A
Format                         : MLP FBA 16-ch
. x. ?0 z" N7 n: k1 |4 E! S/ _Format/Info                    : Meridian Lossless Packing FBA with 16-channel presentation
$ z2 R1 @: |+ m, }Commercial name                : Dolby TrueHD with Dolby Atmos  W/ x; i+ C) N# e% G
Codec ID                       : A_TRUEHD
& a! q7 \7 Z' W% h& L0 `" _! e0 kDuration                       : 2 h 10 min
- |, s6 M' i  c; JBit rate mode                  : Variable, ^, H1 G: E' ^. r* a" v
Bit rate                       : 4 012 kb/s3 t% C- a) t1 [7 j
Maximum bit rate               : 6 327 kb/s
* K3 ]8 u' {0 F6 X1 QChannel(s)                     : 8 channels
7 B8 [. G) \9 f  b' a( D3 n' [' O" hChannel layout                 : L R C LFE Ls Rs Lb Rb
& O6 m' r$ f8 K$ z) h- X) [Sampling rate                  : 48.0 kHz
/ Q' a) q; |% w* ]" Y+ YFrame rate                     : 1 200.000 FPS (40 SPF)
1 y% z  ~' z) Z8 q( ICompression mode               : Lossless
- j4 ]& ^% @* Y1 O7 c  e0 hStream size                    : 3.66 GiB (18%)
/ w* y" E2 N/ n: i5 hTitle                          : John.Wick.Chapter.3.Parabellum.2019.2160p.BluRay.x265.10bit.HDR.DTS-HD.MA.TrueHD.7.1.Atmos-SWTYBLZ2 g  l5 r: b) _" ^. L
Language                       : English/ }' q& a) e6 e8 b  ]
Default                        : Yes
8 ?& e( C6 F+ B- @1 }$ G" jForced                         : No1 t9 D. j( b& i
Number of dynamic objects      : 15
$ Y# D8 {# Q! B2 vBed channel count              : 1 channel/ q$ C% n2 n2 `0 i
Bed channel configuration      : LFE
% S2 A' S) V1 d8 v  z
/ B( Y  s" V+ {- n+ Z; s8 O& HText #1; G/ a( s& _" p; N
ID                             : 3! N6 v( o! Z0 j  {) F) B" r5 o  U
Format                         : UTF-8
* y. p7 v, U7 w  |% J+ pCodec ID                       : S_TEXT/UTF85 {' N: G& d" U* H9 F
Codec ID/Info                  : UTF-8 Plain Text5 d; s3 N& [7 d# A* ]( Q
Duration                       : 1 h 59 min- G4 R9 ]! z4 l0 S  G
Bit rate                       : 24 b/s
  _  x$ |6 O7 a' v) LCount of elements              : 683; B2 x2 j2 P$ h) o- I
Stream size                    : 21.1 KiB (0%)
. G4 |, r* \3 HTitle                          : English-SRT
* l/ d1 X2 S! ?& U. p5 [8 tLanguage                       : English% |) ^6 K* L! Q0 ~8 C, q. l8 j
Default                        : Yes* P/ H- o) c8 U3 W7 q: C- Z
Forced                         : No0 v. h" p' T- Y/ N. C
, |- m8 `2 n; l! O+ h
Text #2
( }8 _# O  Q( z* w7 PID                             : 4
$ Z7 h7 h! U1 |9 q0 B, vFormat                         : UTF-8
6 f% _9 s# {' u* q, jCodec ID                       : S_TEXT/UTF8
2 J7 E! u$ a. WCodec ID/Info                  : UTF-8 Plain Text
0 t0 u' y4 ~) ADuration                       : 1 h 59 min
3 Q( s2 b& V3 M5 B( O, `Bit rate                       : 21 b/s8 G' }# G: Q7 b1 J! M
Count of elements              : 8030 v. J6 x# x) M9 n* T
Stream size                    : 18.8 KiB (0%)
7 t/ _5 h2 o3 [Title                          : 简体中文# O1 l# J$ c3 H
Language                       : Chinese( F6 u. ~" T4 E( b) h- O1 ^8 r
Default                        : No
1 [. P$ o  s  Q* }Forced                         : No, i6 \6 W8 \. [! R" l; O

/ D+ w, k5 J3 C- OMenu# P5 H2 M6 X/ |  M
00:00:00.000                   : en:Chapter 011 V9 A* |( m% E) W; i
00:08:46.860                   : en:Chapter 02
1 u/ N9 y" ~- F8 ^: J1 |00:14:06.763                   : en:Chapter 03  X8 D/ g0 P- x7 j
00:22:40.401                   : en:Chapter 04; j' G) w9 y. P2 \
00:31:26.301                   : en:Chapter 054 C5 I- g$ U4 u; ?, y
00:37:51.311                   : en:Chapter 06! E) k! @3 o) l: k$ Y' j
00:47:43.319                   : en:Chapter 073 b: h1 P: T8 K( \2 x# G) ?$ f1 c
00:57:09.176                   : en:Chapter 083 ?3 j! P; u/ ~
01:02:56.439                   : en:Chapter 09+ n0 g/ B. ^! k2 V, y" ~4 [/ j+ ~2 ^
01:14:27.672                   : en:Chapter 10
, Q" v0 Q- B7 _% f8 T7 ]01:20:36.665                   : en:Chapter 117 Q  e" y  n4 C5 S3 e2 _
01:28:48.365                   : en:Chapter 12
5 q" z$ {7 K( g; Y, ]01:33:51.793                   : en:Chapter 13
. H& @/ k* k9 h2 s' ]01:41:31.794                   : en:Chapter 141 x8 M1 Q  I- e" L+ h0 `+ D
01:53:44.651                   : en:Chapter 15
" J6 ], r! i6 [% Y3 A; l- ?7 |! }01:59:51.434                   : en:Chapter 16
回复 支持 反对

使用道具 举报

全部回复27

mehottoo 发表于 2021-3-17 10:48:55

mehottoo 沙发

2021-3-17 10:48:55

写的不够清楚,最好把片源编码信息也放上来,并且说明一下不带字幕的原片是否可以播放。我用这个工具封装过超过100部片子,没有遇到过这种情况。
回复 支持 反对

使用道具 举报

BryanMTS 发表于 2021-3-17 10:52:51

BryanMTS 板凳

2021-3-17 10:52:51

mehottoo 发表于 2021-3-17 10:48
- n! f- I+ ^9 F7 I写的不够清楚,最好把片源编码信息也放上来,并且说明一下不带字幕的原片是否可以播放。我用这个工具封装过 ...

, v# O5 n+ n3 ^+ x: O编码信息是啥啊?我是在本网站下的猫和老鼠,原片电脑电视播放都没问题
回复 支持 反对

使用道具 举报

大神朝阳 发表于 2021-3-17 11:03:12

大神朝阳 5#

2021-3-17 11:03:12

别的视频几百M? 本站的猫和老是好像有几十个G了吧?
回复 支持 反对

使用道具 举报

BryanMTS 发表于 2021-3-17 11:13:39

BryanMTS 6#

2021-3-17 11:13:39

大神朝阳 发表于 2021-3-17 11:03* I9 ?4 t5 g4 V, Q' U4 m
别的视频几百M? 本站的猫和老是好像有几十个G了吧?
& [7 y+ L+ T. I% Z" q" R! @
对的 别的不想关的视频只是用来测试mkvtool软件是不是ok的
回复 支持 反对

使用道具 举报

qazxderfvbhy 发表于 2021-3-17 11:15:47

qazxderfvbhy 7#

2021-3-17 11:15:47

鼠标右键->字幕->选择字幕,看看选择字幕里面有没有你要的那个字幕,如果有,看看这个字幕有没有被勾选上
回复 支持 反对

使用道具 举报

BryanMTS 发表于 2021-3-17 11:16:55

BryanMTS 8#

2021-3-17 11:16:55

qazxderfvbhy 发表于 2021-3-17 11:15
, j( B8 ~1 v" i3 c/ j鼠标右键->字幕->选择字幕,看看选择字幕里面有没有你要的那个字幕,如果有,看看这个字幕有没有被勾选上
( f. t2 `" F4 n
??我是无法播放混流后视频
回复 支持 反对

使用道具 举报

mehottoo 发表于 2021-3-17 11:24:04

mehottoo 10#

2021-3-17 11:24:04

同意8楼的看法,建议把混流过的MKV文件拉进MKVToolNix,看看是不是遗漏啥内容了。
回复 支持 反对

使用道具 举报

15109259550 发表于 2021-3-17 11:28:03 Hao4K手机版

15109259550 11#

2021-3-17 11:28:03

混好的信息贴出来
回复 支持 反对

使用道具 举报

BryanMTS 发表于 2021-3-17 11:28:17

BryanMTS 12#

2021-3-17 11:28:17

mehottoo 发表于 2021-3-17 11:24
$ a% j5 A8 F( C+ E4 ~) I* |同意8楼的看法,建议把混流过的MKV文件拉进MKVToolNix,看看是不是遗漏啥内容了。
7 w  U+ E+ j+ ?; }* r/ k6 I8 E
猫和老鼠源文件里只有1个视频文件和1个音频文件 我把源文件放进去然后再把ASS字幕文件放进去 混流出的就1个视频+1个音频+1个字幕3个东西 没有别的了 我在想是不是我源文件有点问题还是咋的 因为别的不相关视频+该猫和老鼠字幕混流就可以播放
回复 支持 反对

使用道具 举报

mehottoo 发表于 2021-3-17 11:29:30

mehottoo 13#

2021-3-17 11:29:30

那就不知道了,其实如果只是在电脑端播放的话,也没必要太纠结了
回复 支持 反对

使用道具 举报

BryanMTS 发表于 2021-3-17 11:31:15

BryanMTS 14#

2021-3-17 11:31:15

mehottoo 发表于 2021-3-17 11:29
8 a! E+ V. t$ \; U那就不知道了,其实如果只是在电脑端播放的话,也没必要太纠结了
4 e! f" @* S' ^5 b0 F: C* d0 G
主要我想混好放在电视上看 上次失败了以后我就只能直接在电视上看生肉了 还是想解决这个问题 anyway 感谢
回复 支持 反对

使用道具 举报

BryanMTS 发表于 2021-3-17 11:32:27

BryanMTS 15#

2021-3-17 11:32:27

qazxderfvbhy 发表于 2021-3-17 11:19, x. S- A4 ~5 g. V* d, R
那要看看你是怎么混流的,混流时勾选了哪些东西

5 d  H: z* b( L猫和老鼠源文件里只有1个视频文件和1个音频文件 我把源文件放进去然后再把ASS字幕文件放进去 混流出的就1个视频+1个音频+1个字幕3个东西 没有别的了 我在想是不是我源文件有点问题还是咋的 因为别的不相关视频+该猫和老鼠字幕混流就可以播放
回复 支持 反对

使用道具 举报

15109259550 发表于 2021-3-17 11:37:36 Hao4K手机版

15109259550 16#

2021-3-17 11:37:36

估计下的是单层单轨杜比视界版,通过简单的混流为mkv,电脑是无法播放的,用tsmuxer混流为m2ts试试
回复 支持 反对

使用道具 举报

qazxderfvbhy 发表于 2021-3-17 11:42:43

qazxderfvbhy 17#

2021-3-17 11:42:43

BryanMTS 发表于 2021-3-17 11:32
8 s/ O! f5 V/ X) H6 g$ H5 |6 O4 G猫和老鼠源文件里只有1个视频文件和1个音频文件 我把源文件放进去然后再把ASS字幕文件放进去 混流出的就1 ...

  _& j5 b( o2 G: T0 e- l) Q3 L论坛里的猫和老鼠有两版,你下的是不是杜比视界版?最好还是下普通版的
回复 支持 反对

使用道具 举报

BryanMTS 发表于 2021-3-17 12:24:24

BryanMTS 18#

2021-3-17 12:24:24

15109259550 发表于 2021-3-17 11:371 u- x: e9 u; \) A+ N: b3 n
估计下的是单层单轨杜比视界版,通过简单的混流为mkv,电脑是无法播放的,用tsmuxer混流为m2ts试试
# c8 O2 @2 V: Z2 N% J8 F
啊 所以是不能混杜比吗 我确实下的是杜比版
回复 支持 反对

使用道具 举报

   发表回复

您需要登录后才可以回帖 登录 | 立即注册

返回列表 本版积分规则

:
青铜玩家
:
未填写

主题

帖子

积分70

图文推荐

  • 【已售】出售115永久皇冠VIP

    115网盘: 超大空间、高速传输、200G大文

  • 出开博尔Q20PLUS+戴尔UP2718q hdr1000显示

    设备升级了,转让纯一手开博尔Q20PLUS 4K硬盘播放

  • 出99新的Xbox one X港服,只买了两个月寻有

    只买了两个月的Xbox one X港服,寻有缘人,拿回来

  • (已出,谢谢)出WD 8T紫盘,带6.6T资源。

    已出,谢谢关注! ======================

  • 4K原盘900余部,顶级蓝光影视剧万余部,海

    感谢Hao4k专业平台的支持!个人喜爱影视剧收藏,

  • 在线客服

  • 返回顶部