微博 微信

Hao4K影音

电影频道
电影封面:
片  名: 护航父母4K
电影分类: 喜剧 
国  家: 英国 
年  代: 2018年
分 辨 率: 4K(3840x2160)
电影格式: MKV|REMUX 
画质标准: HDR10 
音质编码: DTS-HD Master Audio 
电影声道: 5.1声道 
帧数/FPS: 23.976 帧
电影语言: 英文原版 
资源大小: 13.42 GB
导  演: 凯·加农
豆瓣评分: 6.5 分
中文字幕: -
剧情简介: 此片是《完美音调》系列编剧凯·卡农的导演处女作,莱斯利·曼恩、约翰·塞纳、伊克·巴里霍尔兹主演,讲述三位家长偶然发现各自的女儿计划在舞会上献出自己的第一次,为了阻止他们,三位开展了一个纰漏百出的“秘密计划”。
围鸡总动员(台) / 反啪啪同盟(港) / 护航者/护航父母4K.Blockers.2018.2160p.AMZN.WEB-DL.x265.10bit.HDR10Plus.DTS-HD.MA.5.1-4k电影信息
  1. Video
  2. ID : 1
  3. Format : HEVC
  4. Format/Info : High Efficiency Video Coding
  5. Format profile : Main 10@L5@Main
  6. HDR format : SMPTE ST 2094 App 4, Version 1, HDR10+ Profile B compatible
  7. Codec ID : V_MPEGH/ISO/HEVC
  8. Duration : 1 h 41 min
  9. Bit rate : 14.6 Mb/s
  10. Width : 3 840 pixels
  11. Height : 1 600 pixels
  12. Display aspect ratio : 2.40:1
  13. Frame rate mode : Constant
  14. Frame rate : 23.976 (24000/1001) FPS
  15. Color space : YUV
  16. Chroma subsampling : 4:2:0
  17. Bit depth : 10 bits
  18. Bits/(Pixel*Frame) : 0.099
  19. Stream size : 10.4 GiB (78%)
  20. Default : Yes
  21. Forced : No
  22. Color range : Limited
  23. Color primaries : BT.2020
  24. Transfer characteristics : PQ
  25. Matrix coefficients : BT.2020 non-constant
  26. Mastering display color primaries : Display P3
  27. Mastering display luminance : min: 0.0050 cd/m2, max: 1000 cd/m2
  28. Maximum Content Light Level : 979 cd/m2
  29. Maximum Frame-Average Light Level : 207 cd/m2

  30. Audio #1
  31. ID : 2
  32. Format : DTS XLL
  33. Format/Info : Digital Theater Systems
  34. Commercial name : DTS-HD Master Audio
  35. Codec ID : A_DTS
  36. Duration : 1 h 41 min
  37. Bit rate mode : Variable
  38. Bit rate : 3 362 kb/s
  39. Channel(s) : 6 channels
  40. Channel layout : C L R Ls Rs LFE
  41. Sampling rate : 48.0 kHz
  42. Frame rate : 93.750 FPS (512 SPF)
  43. Bit depth : 24 bits
  44. Compression mode : Lossless
  45. Delay relative to video : 1 s 1 ms
  46. Stream size : 2.39 GiB (18%)
  47. Title : DTS-HD MA 5.1
  48. Language : English
  49. Default : Yes
  50. Forced : No

  51. Audio #2
  52. ID : 3
  53. Format : AC-3
  54. Format/Info : Audio Coding 3
  55. Commercial name : Dolby Digital
  56. Codec ID : A_AC3
  57. Duration : 1 h 41 min
  58. Bit rate mode : Constant
  59. Bit rate : 640 kb/s
  60. Channel(s) : 6 channels
  61. Channel layout : L R C LFE Ls Rs
  62. Sampling rate : 48.0 kHz
  63. Frame rate : 31.250 FPS (1536 SPF)
  64. Compression mode : Lossy
  65. Stream size : 467 MiB (3%)
  66. Title : DD 5.1
  67. Language : English
  68. Service kind : Complete Main
  69. Default : No
  70. Forced : No

  71. Text
  72. ID : 4
  73. Format : UTF-8
  74. Codec ID : S_TEXT/UTF8
  75. Codec ID/Info : UTF-8 Plain Text
  76. Duration : 1 h 41 min
  77. Bit rate : 106 b/s
  78. Count of elements : 2624
  79. Stream size : 79.8 KiB (0%)
  80. Title : SDH
  81. Language : English
  82. Default : Yes
  83. Forced : No

  84. Menu
  85. 00:00:00.000 : en:Studio Logos
  86. 00:00:48.000 : en:First day of school
  87. 00:02:00.000 : en:Title Sequence
  88. 00:02:04.000 : en:The kids grow up
  89. 00:02:51.000 : en:The girls make a pact
  90. 00:10:03.000 : en:Everyone gets ready for prom
  91. 00:21:43.000 : en:Lisa and Mitchell make a plan
  92. 00:32:03.000 : en:The parents try to blend in
  93. 00:40:07.000 : en:The hunt for the after party
  94. 00:46:49.000 : en:Mitchell takes one for the team
  95. 00:55:32.000 : en:The fast and the furious in real life
  96. 00:58:37.000 : en:Being a parent and a friend is hard
  97. 01:05:35.000 : en:Austin's parent have the answers
  98. 01:10:21.000 : en:It's time to crash a party
  99. 01:17:57.000 : en:Sometimes the parents need to grow up
  100. 01:26:39.000 : en:A woman amongst girls
  101. 01:31:16.000 : en:It's time to let go
  102. 01:34:09.000 : en:End Credits
复制代码
围鸡总动员(台) / 反啪啪同盟(港) / 护航者/护航父母4K.Blockers.2018.2160p.AMZN.WEB-DL.x265.10bit.HDR10Plus.DTS-HD.MA.5.1-4K电影下载

护航父母4K.Blockers.2018.2160p.AMZN.WEB-DL.x265.10bit.HDR10Plus.DTS-HD.MA.5.1 【13.42 GB】
[Hao4K]护航父母4K.Blockers.2018.2160p.AMZN.WEB-DL.x265.10bit.HDR10Plus.DTS-HD.MA.torrent (66.78 KB)
回复

使用道具 举报

全部回复35

15018715667 发表于 2021-3-19 10:26:38

15018715667 沙发

2021-3-19 10:26:38

这么快就有了。厉害工
回复 支持 1 反对 0

使用道具 举报

xxw8888 发表于 2021-3-19 11:17:00

xxw8888 板凳

2021-3-19 11:17:00

感谢分享好电影
回复 支持 反对

使用道具 举报

Makoto8023 发表于 2021-3-19 12:16:00

Makoto8023 地板

2021-3-19 12:16:00

谢谢分享
回复 支持 反对

使用道具 举报

yale 发表于 2021-3-19 16:06:06

yale 5#

2021-3-19 16:06:06

谢谢分享
回复 支持 反对

使用道具 举报

506606757 发表于 2021-3-19 19:06:23

506606757 7#

2021-3-19 19:06:23

不错 不错 支持一下
回复 支持 反对

使用道具 举报

cxb5261517 发表于 2021-3-19 19:31:04

cxb5261517 8#

2021-3-19 19:31:04

谢谢分享
回复 支持 反对

使用道具 举报

qxxjyz 发表于 2021-3-19 19:41:46

qxxjyz 9#

2021-3-19 19:41:46

谢谢分享
回复 支持 反对

使用道具 举报

slbopp 发表于 2021-3-19 20:16:29

slbopp 10#

2021-3-19 20:16:29


好电影,感谢楼分享!
回复 支持 反对

使用道具 举报

djl042501 发表于 2021-3-19 22:22:52

djl042501 11#

2021-3-19 22:22:52

更新的好快啊
回复 支持 反对

使用道具 举报

neon1991 发表于 2021-3-20 01:59:46

neon1991 12#

2021-3-20 01:59:46

塞纳又拍电影了,哈哈
回复 支持 反对

使用道具 举报

fengz_007 发表于 2021-3-20 07:55:28

fengz_007 13#

2021-3-20 07:55:28

感谢分享!
回复 支持 反对

使用道具 举报

patriotiii 发表于 2021-3-20 08:38:16

patriotiii 14#

2021-3-20 08:38:16

顶一顶,然后再下载
回复 支持 反对

使用道具 举报

蓝天白_HZ9Ge 发表于 2021-3-20 11:39:19

蓝天白_HZ9Ge 15#

2021-3-20 11:39:19

感谢楼主分享好电影
回复 支持 反对

使用道具 举报

76690691 发表于 2021-3-20 12:10:18

76690691 16#

2021-3-20 12:10:18


回复下载看电影。谢谢楼主。
回复 支持 反对

使用道具 举报

yu_yang81 发表于 2021-3-20 15:25:27

yu_yang81 17#

2021-3-20 15:25:27

感谢分享!楼主大好人
回复 支持 反对

使用道具 举报

N大大 发表于 2021-3-20 16:09:27

N大大 18#

2021-3-20 16:09:27

谢谢分享啦
回复 支持 反对

使用道具 举报

   发表回复

您需要登录后才可以回帖 登录 | 立即注册

返回列表 本版积分规则

  • 在线客服

  • 返回顶部