微博 微信

Hao4K影音

电影频道
电影封面:
片  名: 租房惊魂4k
电影分类: 恐怖 惊悚 
国  家: 美国 
年  代: 2020年
分 辨 率: 4K(3840x2160)
电影格式: MKV|REMUX 
画质标准: HDR10 
音质编码: DTS-HD Master Audio 
电影声道: 5.1声道 
帧数/FPS: 23.976 帧
电影语言: 英文原版 
资源大小: 11.29 GB
导  演: 戴夫·弗兰科
豆瓣评分: 5.1 分
中文字幕: /thread-55443-1-1.html
剧情简介: 两对夫妇搬入租来的度假屋中,诡异的事情却接连发生。
夺命监(港) / 致命窥弑(台) / 租赁/租房惊魂4k The.Rental.2020.2160p.AMZN.WEB-DL.x265.10bit.HDR10Plus.DTS-HD.MA.5.1电影信息
  1. Video
  2. ID : 1
  3. Format : HEVC
  4. Format/Info : High Efficiency Video Coding
  5. Format profile : Main 10@L5@Main
  6. HDR format : SMPTE ST 2094 App 4, Version 1, HDR10+ Profile B compatible
  7. Codec ID : V_MPEGH/ISO/HEVC
  8. Duration : 1 h 28 min
  9. Bit rate : 14.8 Mb/s
  10. Width : 3 840 pixels
  11. Height : 1 600 pixels
  12. Display aspect ratio : 2.40:1
  13. Frame rate mode : Constant
  14. Frame rate : 23.976 (24000/1001) FPS
  15. Color space : YUV
  16. Chroma subsampling : 4:2:0
  17. Bit depth : 10 bits
  18. Bits/(Pixel*Frame) : 0.101
  19. Stream size : 9.15 GiB (81%)
  20. Default : Yes
  21. Forced : No
  22. Color range : Limited
  23. Color primaries : BT.2020
  24. Transfer characteristics : PQ
  25. Matrix coefficients : BT.2020 non-constant
  26. Mastering display color primaries : Display P3
  27. Mastering display luminance : min: 0.0001 cd/m2, max: 1000 cd/m2
  28. Maximum Content Light Level : 1007 cd/m2
  29. Maximum Frame-Average Light Level : 159 cd/m2

  30. Audio #1
  31. ID : 2
  32. Format : DTS XLL
  33. Format/Info : Digital Theater Systems
  34. Commercial name : DTS-HD Master Audio
  35. Codec ID : A_DTS
  36. Duration : 1 h 28 min
  37. Bit rate mode : Variable
  38. Bit rate : 2 816 kb/s
  39. Channel(s) : 6 channels
  40. Channel layout : C L R Ls Rs LFE
  41. Sampling rate : 48.0 kHz
  42. Frame rate : 93.750 FPS (512 SPF)
  43. Bit depth : 24 bits
  44. Compression mode : Lossless
  45. Delay relative to video : 6 ms
  46. Stream size : 1.74 GiB (15%)
  47. Title : DTS-HD MA 5.1
  48. Language : English
  49. Default : Yes
  50. Forced : No

  51. Audio #2
  52. ID : 3
  53. Format : E-AC-3
  54. Format/Info : Enhanced AC-3
  55. Commercial name : Dolby Digital Plus
  56. Codec ID : A_EAC3
  57. Duration : 1 h 28 min
  58. Bit rate mode : Constant
  59. Bit rate : 640 kb/s
  60. Channel(s) : 6 channels
  61. Channel layout : L R C LFE Ls Rs
  62. Sampling rate : 48.0 kHz
  63. Frame rate : 31.250 FPS (1536 SPF)
  64. Compression mode : Lossy
  65. Stream size : 405 MiB (4%)
  66. Title : English
  67. Language : English
  68. Service kind : Complete Main
  69. Default : No
  70. Forced : No

  71. Text #1
  72. ID : 4
  73. Format : UTF-8
  74. Codec ID : S_TEXT/UTF8
  75. Codec ID/Info : UTF-8 Plain Text
  76. Duration : 1 h 22 min
  77. Bit rate : 50 b/s
  78. Count of elements : 1205
  79. Stream size : 31.0 KiB (0%)
  80. Title : English [SDH]
  81. Language : English
  82. Default : Yes
  83. Forced : No

  84. Text #2
  85. ID : 5
  86. Format : UTF-8
  87. Codec ID : S_TEXT/UTF8
  88. Codec ID/Info : UTF-8 Plain Text
  89. Duration : 1 h 27 min
  90. Bit rate : 36 b/s
  91. Count of elements : 679
  92. Stream size : 23.2 KiB (0%)
  93. Title : French (Canada)
  94. Language : French
  95. Default : No
  96. Forced : No

  97. Text #3
  98. ID : 6
  99. Format : UTF-8
  100. Codec ID : S_TEXT/UTF8
  101. Codec ID/Info : UTF-8 Plain Text
  102. Duration : 1 h 21 min
  103. Bit rate : 49 b/s
  104. Count of elements : 1115
  105. Stream size : 29.5 KiB (0%)
  106. Title : English
  107. Language : English
  108. Default : No
  109. Forced : No

  110. Text #4
  111. ID : 7
  112. Format : UTF-8
  113. Codec ID : S_TEXT/UTF8
  114. Codec ID/Info : UTF-8 Plain Text
  115. Duration : 1 h 27 min
  116. Bit rate : 40 b/s
  117. Count of elements : 925
  118. Stream size : 25.7 KiB (0%)
  119. Title : Italian
  120. Language : Italian
  121. Default : No
  122. Forced : No

  123. Menu
  124. 00:00:00.000 : en:Amazon Original
  125. 00:00:06.000 : en:Studio Logo
  126. 00:00:29.000 : en:Charlie looks at the house
  127. 00:02:45.000 : en:Charlie talks about his brother
  128. 00:03:57.000 : en:Charlie picks up Josh
  129. 00:05:34.000 : en:Title Sequence
  130. 00:05:50.000 : en:They arrive at the house
  131. 00:08:43.000 : en:Josh shows inside of the house
  132. 00:11:32.000 : en:Josh talks about the house
  133. 00:12:56.000 : en:Josh finds a door
  134. 00:15:08.000 : en:Take a walk on the sandy beach
  135. 00:17:09.000 : en:having a fun at the night
  136. 00:20:56.000 : en:People get tired
  137. 00:25:10.000 : en:Charlie takes a hot tub
  138. 00:30:08.000 : en:Mina talks to Charlie
  139. 00:34:16.000 : en:Michelle and Josh go hike
  140. 00:36:20.000 : en:Mina finds something
  141. 00:39:51.000 : en:Michelle is upset
  142. 00:43:31.000 : en:Josh looks for Reggie
  143. 00:44:53.000 : en:The hot tub is broken
  144. 00:46:32.000 : en:Taylor comes to the house
  145. 00:48:15.000 : en:Mina asks questions
  146. 00:51:47.000 : en:Mina talks about the camera
  147. 00:53:04.000 : en:They start arguing
  148. 00:57:57.000 : en:They bring out Taylor
  149. 01:01:18.000 : en:Michelle hears a noise
  150. 01:04:26.000 : en:Back to the house
  151. 01:07:32.000 : en:Charlie looks for Michelle
  152. 01:10:43.000 : en:Josh discovers something
  153. 01:16:43.000 : en:Mina is in a danger
  154. 01:19:48.000 : en:The man cleans up
  155. 01:22:37.000 : en:New house
  156. 01:25:20.000 : en:End Credits
复制代码

夺命监(港) / 致命窥弑(台) / 租赁/租房惊魂4k The.Rental.2020.2160p.AMZN.WEB-DL.x265.10bit.HDR10Plus.DTS-HD.MA.5.1电影下载

租房惊魂4k The.Rental.2020.2160p.AMZN.WEB-DL.x265.10bit.HDR10Plus.DTS-HD.MA.5.1【11.29GB】
[Hao4k]租房惊魂4k The.Rental.2020.2160p.AMZN.WEB-DL.x265.10bit.HDR10Plus.DTS-HD..torrent (57.04 KB, 售价: 2 K币)
回复

使用道具 举报

全部回复35

芝杜1201 发表于 2021-3-21 08:23:31

芝杜1201 沙发

2021-3-21 08:23:31

,已经全部演完了!散了散了!
回复 支持 反对

使用道具 举报

bbgrnnji 发表于 2021-3-21 08:49:41

bbgrnnji 板凳

2021-3-21 08:49:41

绝对看出来4K资源非常喜欢恐怖片
回复 支持 反对

使用道具 举报

yale 发表于 2021-3-21 08:50:53

yale 地板

2021-3-21 08:50:53

谢谢分享
回复 支持 反对

使用道具 举报

ldyz05 发表于 2021-3-21 11:43:04

ldyz05 5#

2021-3-21 11:43:04

谢谢分享
回复 支持 反对

使用道具 举报

a232470131 发表于 2021-3-21 13:17:29

a232470131 6#

2021-3-21 13:17:29

高清恐怖片吗? 谢谢分享
回复 支持 反对

使用道具 举报

andywjhh 发表于 2021-3-21 14:00:57

andywjhh 7#

2021-3-21 14:00:57

好资源很给力
回复 支持 反对

使用道具 举报

zsadtj 发表于 2021-3-21 14:46:55

zsadtj 8#

2021-3-21 14:46:55


谢谢分享
回复 支持 反对

使用道具 举报

supernova0617 发表于 2021-3-21 17:43:20 Hao4K手机版

supernova0617 9#

2021-3-21 17:43:20

感谢分享电影
回复 支持 反对

使用道具 举报

panbell 发表于 2021-3-21 21:22:04

panbell 10#

2021-3-21 21:22:04

谢谢分享,楼主辛苦了!
回复 支持 反对

使用道具 举报

yale 发表于 2021-3-21 22:11:34

yale 11#

2021-3-21 22:11:34

谢谢分享
回复 支持 反对

使用道具 举报

nhce8902 发表于 2021-3-22 16:52:07

nhce8902 12#

2021-3-22 16:52:07

非常喜欢4K资源恐怖片。
回复 支持 反对

使用道具 举报

dragon_walk 发表于 2021-3-22 17:23:17

dragon_walk 13#

2021-3-22 17:23:17

恐怖高清片,晚上看,嘿嘿
回复 支持 反对

使用道具 举报

rookie811 发表于 2021-3-23 11:11:06

rookie811 14#

2021-3-23 11:11:06

最喜欢看恐怖片了,多分享下恐怖片
回复 支持 反对

使用道具 举报

chlwql123 发表于 2021-3-23 19:21:24

chlwql123 15#

2021-3-23 19:21:24

电影怕偷采vb,谢谢
回复 支持 反对

使用道具 举报

davise2789 发表于 2021-3-23 21:01:58

davise2789 16#

2021-3-23 21:01:58

感谢楼主,
回复 支持 反对

使用道具 举报

jajauioopiuy 发表于 2021-3-24 09:02:21 Hao4K手机版

jajauioopiuy 17#

2021-3-24 09:02:21

感谢分享
回复 支持 反对

使用道具 举报

LvWADE 发表于 2021-3-24 10:58:55

LvWADE 18#

2021-3-24 10:58:55

不敢看哈哈哈
回复 支持 反对

使用道具 举报

   发表回复

您需要登录后才可以回帖 登录 | 立即注册

返回列表 本版积分规则

  • 在线客服

  • 返回顶部