微博 微信

Hao4K影音

电影频道
电影封面:
片  名: 查帕奎迪克4k
电影分类: 惊悚 剧情 历史 
国  家: 美国 
年  代: 2017年
分 辨 率: 4K(3840x2160)
电影格式: MKV|REMUX 
画质标准: HDR10 
音质编码: Dolby Digital Plus Audio 
电影声道: 5.1声道 
帧数/FPS: 23.976 帧
电影语言: 英文原版 
资源大小: 13.60 GB
导  演: 约翰·卡兰
豆瓣评分: 5.9 分
中文字幕: -
剧情简介: 澳大利亚男演员杰森·克拉科将出演影片《查帕奎迪克岛》(Chappaquiddick,暂译),他在片中饰演肯尼迪家族成员之一参议员爱德华·肯尼迪,即肯尼迪总统的弟弟。《面纱》导演约翰·卡兰执导筒。影片将聚焦1969年以爱德华·肯尼迪为核心的“查帕奎迪克丑闻事件”,“肯尼迪诅咒”再次现身大银幕。
查帕奎迪克4k  Chappaquiddick.2017.2160p.AMZN.WEB-DL.x265.10bit.HDR10Plus.DTS电影下载
  1. Video
  2. ID : 1
  3. Format : HEVC
  4. Format/Info : High Efficiency Video Coding
  5. Format profile : Main 10@L5@Main
  6. HDR format : SMPTE ST 2094 App 4, Version 1, HDR10+ Profile B compatible
  7. Codec ID : V_MPEGH/ISO/HEVC
  8. Duration : 1 h 46 min
  9. Bit rate : 14.6 Mb/s
  10. Width : 3 840 pixels
  11. Height : 1 600 pixels
  12. Display aspect ratio : 2.40:1
  13. Frame rate mode : Constant
  14. Frame rate : 23.976 (24000/1001) FPS
  15. Color space : YUV
  16. Chroma subsampling : 4:2:0
  17. Bit depth : 10 bits
  18. Bits/(Pixel*Frame) : 0.099
  19. Stream size : 10.9 GiB (80%)
  20. Default : Yes
  21. Forced : No
  22. Color range : Limited
  23. Color primaries : BT.2020
  24. Transfer characteristics : PQ
  25. Matrix coefficients : BT.2020 non-constant
  26. Mastering display color primaries : Display P3
  27. Mastering display luminance : min: 0.0050 cd/m2, max: 1000 cd/m2
  28. Maximum Content Light Level : 6503 cd/m2
  29. Maximum Frame-Average Light Level : 235 cd/m2

  30. Audio #1
  31. ID : 2
  32. Format : DTS XLL
  33. Format/Info : Digital Theater Systems
  34. Commercial name : DTS-HD Master Audio
  35. Codec ID : A_DTS
  36. Duration : 1 h 46 min
  37. Bit rate mode : Variable
  38. Bit rate : 2 974 kb/s
  39. Channel(s) : 6 channels
  40. Channel layout : C L R Ls Rs LFE
  41. Sampling rate : 48.0 kHz
  42. Frame rate : 93.750 FPS (512 SPF)
  43. Bit depth : 24 bits
  44. Compression mode : Lossless
  45. Stream size : 2.22 GiB (16%)
  46. Title : DTS-HD MA 5.1
  47. Language : English
  48. Default : Yes
  49. Forced : No

  50. Audio #2
  51. ID : 3
  52. Format : E-AC-3
  53. Format/Info : Enhanced AC-3
  54. Commercial name : Dolby Digital Plus
  55. Codec ID : A_EAC3
  56. Duration : 1 h 46 min
  57. Bit rate mode : Constant
  58. Bit rate : 640 kb/s
  59. Channel(s) : 6 channels
  60. Channel layout : L R C LFE Ls Rs
  61. Sampling rate : 48.0 kHz
  62. Frame rate : 31.250 FPS (1536 SPF)
  63. Compression mode : Lossy
  64. Stream size : 488 MiB (4%)
  65. Title : DDP 5.1
  66. Language : English
  67. Service kind : Complete Main
  68. Default : No
  69. Forced : No

  70. Text
  71. ID : 4
  72. Format : UTF-8
  73. Codec ID : S_TEXT/UTF8
  74. Codec ID/Info : UTF-8 Plain Text
  75. Duration : 1 h 39 min
  76. Bit rate : 79 b/s
  77. Count of elements : 1730
  78. Stream size : 57.5 KiB (0%)
  79. Title : SDH
  80. Language : English
  81. Default : Yes
  82. Forced : No

  83. Menu
  84. 00:00:00.000 : en:Chapter 1
  85. 00:06:37.856 : en:Chapter 2
  86. 00:14:07.055 : en:Chapter 3
  87. 00:18:17.805 : en:Chapter 4
  88. 00:25:18.183 : en:Chapter 5
  89. 00:31:13.872 : en:Chapter 6
  90. 00:39:24.028 : en:Chapter 7
  91. 00:43:36.489 : en:Chapter 8
  92. 00:52:55.756 : en:Chapter 9
  93. 00:59:25.687 : en:Chapter 10
  94. 01:04:53.681 : en:Chapter 11
  95. 01:11:06.846 : en:Chapter 12
  96. 01:18:16.442 : en:Chapter 13
  97. 01:26:28.350 : en:Chapter 14
  98. 01:32:44.767 : en:Chapter 15
  99. 01:39:29.338 : en:Chapter 16
复制代码


查帕奎迪克4k Chappaquiddick.2017.2160p.AMZN.WEB-DL.x265.10bit.HDR10Plus.DTS-HD.MA.5.1电影

查帕奎迪克4k Chappaquiddick.2017.2160p.AMZN.WEB-DL.x265.10bit.HDR10Plus.DTS-HD.MA.5.1【13.60GB】
Chappaquiddick.2017.2160p.AMZN.WEB-DL.x265.10bit.HDR10Plus.DTS-HD.MA.5.1-SWTYBLZ.torrent (68.57 KB)
回复

使用道具 举报

全部回复33

N大大 发表于 2021-3-22 11:28:50

N大大 沙发

2021-3-22 11:28:50

谢谢分享啊。
回复 支持 反对

使用道具 举报

aoe0317 发表于 2021-3-22 11:40:16

aoe0317 板凳

2021-3-22 11:40:16

感谢楼主分享,支持一下!
回复 支持 反对

使用道具 举报

ywf6168 发表于 2021-3-22 11:55:22

ywf6168 地板

2021-3-22 11:55:22

谢谢分享!!
回复 支持 反对

使用道具 举报

hanshuai1988 发表于 2021-3-22 12:08:54

hanshuai1988 5#

2021-3-22 12:08:54

感谢分享!
回复 支持 反对

使用道具 举报

andywjhh 发表于 2021-3-22 12:34:44

andywjhh 6#

2021-3-22 12:34:44

好资源很给力
回复 支持 反对

使用道具 举报

yale 发表于 2021-3-22 12:44:04

yale 7#

2021-3-22 12:44:04

谢谢分享
回复 支持 反对

使用道具 举报

lpf199468L 发表于 2021-3-22 15:23:02

lpf199468L 8#

2021-3-22 15:23:02


谢谢分享!
回复 支持 反对

使用道具 举报

雷电 发表于 2021-3-22 15:27:05 Hao4K手机版

雷电 9#

2021-3-22 15:27:05

谢谢分享
回复 支持 反对

使用道具 举报

kennethlin168 发表于 2021-3-22 15:29:31

kennethlin168 10#

2021-3-22 15:29:31

感谢分享!
回复 支持 反对

使用道具 举报

sjzdcwy 发表于 2021-3-22 19:13:17

sjzdcwy 11#

2021-3-22 19:13:17

感谢分享,下来看看!!
回复 支持 反对

使用道具 举报

刚刚额 发表于 2021-3-22 22:08:31

刚刚额 12#

2021-3-22 22:08:31

谢谢分享!
回复 支持 反对

使用道具 举报

peterliuwei 发表于 2021-3-23 08:25:09

peterliuwei 13#

2021-3-23 08:25:09


谢谢分享!
回复 支持 反对

使用道具 举报

hutu2008 发表于 2021-3-23 08:34:25

hutu2008 14#

2021-3-23 08:34:25


非常感谢分享
回复 支持 反对

使用道具 举报

dk30129 发表于 2021-3-23 08:53:38

dk30129 15#

2021-3-23 08:53:38

谢谢分享,顶你!!!
回复 支持 反对

使用道具 举报

dudumso 发表于 2021-3-23 09:22:00

dudumso 16#

2021-3-23 09:22:00

感谢楼主大人的分享
回复 支持 反对

使用道具 举报

myc116 发表于 2021-3-23 10:20:13

myc116 17#

2021-3-23 10:20:13

感谢分享
回复 支持 反对

使用道具 举报

cb917918 发表于 2021-3-23 18:42:00

cb917918 18#

2021-3-23 18:42:00


感谢楼主分享,支持一下!
回复 支持 反对

使用道具 举报

   发表回复

您需要登录后才可以回帖 登录 | 立即注册

返回列表 本版积分规则

  • 在线客服

  • 返回顶部