微博 微信

Hao4K影音

电影频道
电影封面:
片  名: 小妇人4k
电影分类: 剧情 爱情片 
国  家: 美国 加拿大 
年  代: 90年代
分 辨 率: 4K(3840x2160)
电影格式: MKV|REMUX 
画质标准: HDR 
音质编码: DTS-HD Master Audio 
电影声道: 5.1声道 
帧数/FPS: 23.976 帧
电影语言: 英文原版 
资源大小: 15.55 GB
导  演: 吉莉安·阿姆斯特朗
豆瓣评分: 8.5 分
中文字幕: /thread-55460-1-1.html
剧情简介: 南北战争时期,马萨诸塞州的康科德城。
  马其家是镇上一个普通家庭,父亲在外打仗,留下坚强的妻子和四个女儿。Meg十六岁,俨然一个窈窕淑女。Jo(薇瑞娜•赖德)十五岁,喜爱写作,发表的文章为家里付清了各种费用。Beth温柔乖巧,羞怯地爱好着钢琴。Amy最小也最漂亮,也有点 爱出风头。马其太太的坚强给了四个女儿力量,她们时常接济贫穷的居民,圣诞节也不例外。当她们的邻居劳伦斯先生听说此事后便准备了丰富的晚餐给这群可爱的小妇人们。
  而劳伦斯的孙子劳里也跟Jo成为了好朋友,成为了马其家的一员。他的家庭教师约翰爱上了Meg,Beth在照顾生病的邻居孩子时感染上了猩红热,在最危险的时候,去华盛顿照顾受伤父亲的妈妈回来了,把父亲也带回来,他们一家团聚。
  四年后,Meg和约翰终于喜结连理,大学毕业的劳里也向Jo求婚,却惨遭拒绝,打击太大的他愤而离家,辗转欧洲,偶遇在欧洲旅游的Amy,此时的Amy早已改掉了虚荣的毛病,她对劳里的关切打动了劳里的心,他们决定结婚。然而此时却传来了Beth病危的消息,还没赶到家Beth已经离开了大家。
  心灰意冷的Jo去了纽约,认识了她生命中的真命天子。
新小妇人/小妇人4k Little.Women.1994.2160p.WEB-DL.x265.10bit.HDR.DTS-HD.MA.5.1电影信息
  1. Video
  2. ID : 1
  3. Format : HEVC
  4. Format/Info : High Efficiency Video Coding
  5. Format profile : Main 10@L5@Main
  6. HDR format : SMPTE ST 2094 App 4, Version 0, HDR10 compatible
  7. Codec ID : V_MPEGH/ISO/HEVC
  8. Duration : 1 h 58 min
  9. Bit rate : 14.9 Mb/s
  10. Width : 3 840 pixels
  11. Height : 2 080 pixels
  12. Display aspect ratio : 1.85:1
  13. Frame rate mode : Constant
  14. Frame rate : 23.976 (24000/1001) FPS
  15. Standard : NTSC
  16. Color space : YUV
  17. Chroma subsampling : 4:2:0 (Type 2)
  18. Bit depth : 10 bits
  19. Bits/(Pixel*Frame) : 0.078
  20. Stream size : 12.3 GiB (79%)
  21. Default : Yes
  22. Forced : No
  23. Color range : Limited
  24. Color primaries : BT.2020
  25. Transfer characteristics : PQ
  26. Matrix coefficients : BT.2020 non-constant
  27. Mastering display color primaries : Display P3
  28. Mastering display luminance : min: 0.0050 cd/m2, max: 4000 cd/m2
  29. Maximum Content Light Level : 2324 cd/m2
  30. Maximum Frame-Average Light Level : 113 cd/m2

  31. Audio #1
  32. ID : 2
  33. Format : DTS XLL
  34. Format/Info : Digital Theater Systems
  35. Commercial name : DTS-HD Master Audio
  36. Codec ID : A_DTS
  37. Duration : 1 h 58 min
  38. Bit rate mode : Variable
  39. Bit rate : 3 606 kb/s
  40. Channel(s) : 6 channels
  41. Channel layout : C L R Ls Rs LFE
  42. Sampling rate : 48.0 kHz
  43. Frame rate : 93.750 FPS (512 SPF)
  44. Bit depth : 24 bits
  45. Compression mode : Lossless
  46. Stream size : 2.98 GiB (19%)
  47. Title : DTS-HD MA 5.1
  48. Language : English
  49. Default : Yes
  50. Forced : No

  51. Audio #2
  52. ID : 3
  53. Format : E-AC-3
  54. Format/Info : Enhanced AC-3
  55. Commercial name : Dolby Digital Plus
  56. Codec ID : A_EAC3
  57. Duration : 1 h 58 min
  58. Bit rate mode : Constant
  59. Bit rate : 256 kb/s
  60. Channel(s) : 6 channels
  61. Channel layout : L R C LFE Ls Rs
  62. Sampling rate : 48.0 kHz
  63. Frame rate : 31.250 FPS (1536 SPF)
  64. Compression mode : Lossy
  65. Stream size : 217 MiB (1%)
  66. Title : DDP 5.1
  67. Language : English
  68. Service kind : Complete Main
  69. Default : No
  70. Forced : No

  71. Text #1
  72. ID : 4
  73. Format : UTF-8
  74. Codec ID : S_TEXT/UTF8
  75. Codec ID/Info : UTF-8 Plain Text
  76. Duration : 1 h 51 min
  77. Bit rate : 59 b/s
  78. Count of elements : 1326
  79. Stream size : 48.9 KiB (0%)
  80. Title : English-SRT
  81. Language : English
  82. Default : Yes
  83. Forced : No

  84. Text #2
  85. ID : 5
  86. Format : UTF-8
  87. Codec ID : S_TEXT/UTF8
  88. Codec ID/Info : UTF-8 Plain Text
  89. Duration : 1 h 52 min
  90. Bit rate : 65 b/s
  91. Count of elements : 1444
  92. Stream size : 53.9 KiB (0%)
  93. Title : English-SDH-SRT
  94. Language : English
  95. Default : No
  96. Forced : No

  97. Text #3
  98. ID : 6
  99. Format : PGS
  100. Muxing mode : zlib
  101. Codec ID : S_HDMV/PGS
  102. Codec ID/Info : Picture based subtitle format used on BDs/HD-DVDs
  103. Duration : 1 h 51 min
  104. Bit rate : 34.9 kb/s
  105. Count of elements : 2648
  106. Stream size : 27.9 MiB (0%)
  107. Title : English-PGS
  108. Language : English
  109. Default : No
  110. Forced : No

  111. Text #4
  112. ID : 7
  113. Format : PGS
  114. Muxing mode : zlib
  115. Codec ID : S_HDMV/PGS
  116. Codec ID/Info : Picture based subtitle format used on BDs/HD-DVDs
  117. Duration : 1 h 54 min
  118. Bit rate : 39.1 kb/s
  119. Count of elements : 3177
  120. Stream size : 31.9 MiB (0%)
  121. Title : English-SDH-PGS
  122. Language : English
  123. Default : No
  124. Forced : No

  125. Menu
  126. 00:00:00.000 : en:Studio Logos
  127. 00:00:24.000 : en:Opening Credits
  128. 00:02:52.000 : en:The March family celebrates reading their father's letter
  129. 00:05:55.000 : en:The sisters give a share of their delicacy to the needy
  130. 00:07:57.000 : en:Laurie catches the sisters' attention
  131. 00:12:35.000 : en:The girls prepare for the nights party
  132. 00:14:30.000 : en:Jo and Meg attend a party
  133. 00:18:45.000 : en:Laurie's friendly gestures make him a family favorite
  134. 00:19:44.000 : en:John praises the sisters and Meg gives Amy money for limes
  135. 00:22:21.000 : en:Mrs. March decides to withdraw Amy's admission from school
  136. 00:25:27.000 : en:Jo shares her career aspirations with Beth
  137. 00:26:29.000 : en:March sisters welcome Laurie into their theatrical group
  138. 00:30:24.000 : en:Amy struggles with algebra lessons
  139. 00:31:31.000 : en:Amy seeks vengence
  140. 00:35:24.000 : en:Jo tries to ignore Amy
  141. 00:37:09.000 : en:March sisters dress up Meg
  142. 00:39:13.000 : en:Laurie acts Meg's guardian during the party
  143. 00:43:14.000 : en:The women discuss worth
  144. 00:46:13.000 : en:Mrs. March gets news about her husband
  145. 00:48:19.000 : en:Beth visits the Hummel's family and takes on an illness
  146. 00:51:56.000 : en:Laurie's comforts Amy on being sent away
  147. 00:53:33.000 : en:Mr. Laurence calls for a doctor
  148. 00:55:17.000 : en:Mrs. March's return catalyzes Beth's recovery
  149. 00:56:43.000 : en:Beth is surprised with secret decorations
  150. 01:00:10.000 : en:Jo resents Meg and John's blossoming relationship
  151. 01:01:17.000 : en:Mr. March's returns
  152. 01:02:53.000 : en:Meg and John get married
  153. 01:04:14.000 : en:Laurie proposes Jo accompany him to London
  154. 01:08:30.000 : en:Aunt March decides to take Amy along with her to Europe
  155. 01:10:03.000 : en:Jo embraces her talents and liberty
  156. 01:12:15.000 : en:Jo writes about her experiences to Beth
  157. 01:13:46.000 : en:Jo gets aquainted with a like-minded Friedrich
  158. 01:19:04.000 : en:Jo's insights on voting scenario alights everybody in a positive way
  159. 01:20:16.000 : en:Jo gets published in the newspaper
  160. 01:22:29.000 : en:Jo and Friedrich enjoy an opera
  161. 01:24:58.000 : en:Laurie sees a familiar face in Europe
  162. 01:26:45.000 : en:Jo works on another story
  163. 01:27:35.000 : en:Laurie attempts to court Amy
  164. 01:30:41.000 : en:Laurie writes a letter to Amy
  165. 01:31:28.000 : en:Friedrich encourages Jo to write better
  166. 01:33:20.000 : en:Jo visits an ailing Beth
  167. 01:34:51.000 : en:Beth shares her grief with Jo
  168. 01:38:43.000 : en:Amy's letter informs the family of Aunt March's illness
  169. 01:40:40.000 : en:Laurie travels at Amy's side
  170. 01:42:18.000 : en:Jo retreats to the attic
  171. 01:46:29.000 : en:Meg gives birth to twins and Amy returns home
  172. 01:48:48.000 : en:March family reunites and spends quality time together
  173. 01:50:11.000 : en:Jo gets inheritance from Aunt March and news of her book's publication
  174. 01:52:04.000 : en:Jo decides to convert Plumfield into a school
复制代码


新小妇人/小妇人4k Little.Women.1994.2160p.WEB-DL.x265.10bit.HDR.DTS-HD.MA.5.1电影

小妇人4k Little.Women.1994.2160p.WEB-DL.x265.10bit.HDR.DTS-HD.MA.5.1【15.55GB】
[Hao4k]小妇人4k Little.Women.1994.2160p.WEB-DL.x265.10bit.HDR.DTS-HD.MA.5.1-SWTY.torrent (78.31 KB)
回复

使用道具 举报

全部回复45

zengzzs 发表于 2021-3-22 11:41:00

zengzzs 沙发

2021-3-22 11:41:00

支持,感谢分享,辛苦了
回复 支持 反对

使用道具 举报

netcrystal 发表于 2021-3-22 11:51:06

netcrystal 板凳

2021-3-22 11:51:06

感谢分享
回复 支持 反对

使用道具 举报

cardinlai 发表于 2021-3-22 11:52:16

cardinlai 地板

2021-3-22 11:52:16

感谢分享
回复 支持 反对

使用道具 举报

祝君恏雲 发表于 2021-3-22 12:04:14

祝君恏雲 5#

2021-3-22 12:04:14

这电影简直棒呆,赫敏,赫敏!
回复 支持 0 反对 1

使用道具 举报

chbo 发表于 2021-3-22 12:07:25

chbo 6#

2021-3-22 12:07:25

感谢分享
回复 支持 反对

使用道具 举报

Makoto8023 发表于 2021-3-22 12:20:45

Makoto8023 7#

2021-3-22 12:20:45

谢谢分享
回复 支持 反对

使用道具 举报

yale 发表于 2021-3-22 12:44:57

yale 8#

2021-3-22 12:44:57

谢谢分享
回复 支持 反对

使用道具 举报

anflash56 发表于 2021-3-22 14:15:19

anflash56 9#

2021-3-22 14:15:19

祝君恏雲 发表于 2021-3-22 12:04
这电影简直棒呆,赫敏,赫敏!

这是老版little women,赫敏参与饰演的是新版小妇人
回复 支持 2 反对 0

使用道具 举报

wwxa 发表于 2021-3-22 14:21:44

wwxa 10#

2021-3-22 14:21:44

还是老版本好看谢谢分享
回复 支持 反对

使用道具 举报

13143759029 发表于 2021-3-22 14:22:36

13143759029 11#

2021-3-22 14:22:36

感谢分享
回复 支持 反对

使用道具 举报

lpf199468L 发表于 2021-3-22 15:22:44

lpf199468L 12#

2021-3-22 15:22:44


感谢分享
回复 支持 反对

使用道具 举报

sjzdcwy 发表于 2021-3-22 19:12:38

sjzdcwy 13#

2021-3-22 19:12:38

感谢分享,下来看看!
回复 支持 反对

使用道具 举报

aabbccddeeff 发表于 2021-3-22 22:41:55

aabbccddeeff 14#

2021-3-22 22:41:55

旧版也看看,新旧对比着看更有意思。
回复 支持 反对

使用道具 举报

dyczw 发表于 2021-3-23 07:17:41

dyczw 15#

2021-3-23 07:17:41

感谢分享,辛苦了
回复 支持 反对

使用道具 举报

highrpmclub 发表于 2021-3-23 11:47:59

highrpmclub 16#

2021-3-23 11:47:59

看过新版的,感觉还不错。之前没了解过还有94版,学习了
回复 支持 反对

使用道具 举报

13143759029 发表于 2021-3-23 14:26:03

13143759029 17#

2021-3-23 14:26:03


感谢分享,下来看看!
回复 支持 反对

使用道具 举报

wj78922 发表于 2021-3-23 15:50:14

wj78922 18#

2021-3-23 15:50:14


感谢分享
回复 支持 反对

使用道具 举报

   发表回复

您需要登录后才可以回帖 登录 | 立即注册

返回列表 本版积分规则

  • 在线客服

  • 返回顶部