微博 微信

Hao4K影音

电影频道
电影封面:
片  名: War.of.Likes 4K
电影分类: 喜剧 
国  家: 日本 
年  代: 2021年
分 辨 率: 4K(3840x2160)
电影格式: MKV|REMUX 
画质标准: HDR10 
音质编码: Dolby Digital Plus Audio 
电影声道: 5.1声道 
帧数/FPS: 23.976 帧
电影语言: 英文原版 
资源大小: 11.65 GB
导  演: Maria Ripoll
豆瓣评分: 5.0 分
中文字幕: -
剧情简介: In order to advance her career in the dynamic world of publicity in Mexico City, Raquel tries to reunite with her high school friend Cecy who has become the queen of social media. But unlike followers, friendships do not come instantly.
War of Likes/War.of.Likes4K.2021.SPANISH.2160p.AMZN.WEB-DL.x265.10bit.HDR10Plus.DDP5.1-4k电影信息
  1. Video
  2. ID : 1
  3. Format : HEVC
  4. Format/Info : High Efficiency Video Coding
  5. Format profile : Main 10@L5@Main
  6. HDR format : SMPTE ST 2094 App 4, Version 1, HDR10+ Profile B compatible
  7. Codec ID : V_MPEGH/ISO/HEVC
  8. Duration : 1 h 43 min
  9. Bit rate : 14.8 Mb/s
  10. Width : 3 840 pixels
  11. Height : 1 600 pixels
  12. Display aspect ratio : 2.40:1
  13. Frame rate mode : Constant
  14. Frame rate : 23.976 (24000/1001) FPS
  15. Color space : YUV
  16. Chroma subsampling : 4:2:0
  17. Bit depth : 10 bits
  18. Bits/(Pixel*Frame) : 0.100
  19. Stream size : 10.7 GiB (92%)
  20. Default : Yes
  21. Forced : No
  22. Color range : Limited
  23. Color primaries : BT.2020
  24. Transfer characteristics : PQ
  25. Matrix coefficients : BT.2020 non-constant
  26. Mastering display color primaries : Display P3
  27. Mastering display luminance : min: 0.0001 cd/m2, max: 1000 cd/m2
  28. Maximum Content Light Level : 1616 cd/m2
  29. Maximum Frame-Average Light Level : 579 cd/m2

  30. Audio #1
  31. ID : 2
  32. Format : E-AC-3
  33. Format/Info : Enhanced AC-3
  34. Commercial name : Dolby Digital Plus
  35. Codec ID : A_EAC3
  36. Duration : 1 h 43 min
  37. Bit rate mode : Constant
  38. Bit rate : 640 kb/s
  39. Channel(s) : 6 channels
  40. Channel layout : L R C LFE Ls Rs
  41. Sampling rate : 48.0 kHz
  42. Frame rate : 31.250 FPS (1536 SPF)
  43. Compression mode : Lossy
  44. Stream size : 475 MiB (4%)
  45. Title : Spanish
  46. Language : Spanish
  47. Service kind : Complete Main
  48. Default : No
  49. Forced : No

  50. Audio #2
  51. ID : 3
  52. Format : E-AC-3
  53. Format/Info : Enhanced AC-3
  54. Commercial name : Dolby Digital Plus
  55. Codec ID : A_EAC3
  56. Duration : 1 h 43 min
  57. Bit rate mode : Constant
  58. Bit rate : 640 kb/s
  59. Channel(s) : 6 channels
  60. Channel layout : L R C LFE Ls Rs
  61. Sampling rate : 48.0 kHz
  62. Frame rate : 31.250 FPS (1536 SPF)
  63. Compression mode : Lossy
  64. Stream size : 475 MiB (4%)
  65. Title : English
  66. Language : English
  67. Service kind : Complete Main
  68. Default : No
  69. Forced : No

  70. Text #1
  71. ID : 4
  72. Format : UTF-8
  73. Codec ID : S_TEXT/UTF8
  74. Codec ID/Info : UTF-8 Plain Text
  75. Duration : 1 h 36 min
  76. Bit rate : 74 b/s
  77. Count of elements : 1479
  78. Stream size : 52.7 KiB (0%)
  79. Title : English
  80. Language : English
  81. Default : Yes
  82. Forced : No

  83. Text #2
  84. ID : 5
  85. Format : UTF-8
  86. Codec ID : S_TEXT/UTF8
  87. Codec ID/Info : UTF-8 Plain Text
  88. Duration : 1 h 43 min
  89. Bit rate : 92 b/s
  90. Count of elements : 2116
  91. Stream size : 69.6 KiB (0%)
  92. Title : Spanish [SDH]
  93. Language : Spanish
  94. Default : No
  95. Forced : No

  96. Text #3
  97. ID : 6
  98. Format : UTF-8
  99. Codec ID : S_TEXT/UTF8
  100. Codec ID/Info : UTF-8 Plain Text
  101. Duration : 1 h 42 min
  102. Bit rate : 65 b/s
  103. Count of elements : 1765
  104. Stream size : 49.1 KiB (0%)
  105. Title : Brazilian Portuguese
  106. Language : Portuguese
  107. Default : No
  108. Forced : No

  109. Menu
  110. 00:00:00.000 : en:Amazon Original
  111. 00:00:06.000 : en:Studio Logo
  112. 00:00:18.000 : en:Scene 3
  113. 00:02:44.000 : en:Opening Credits
  114. 00:03:42.000 : en:Scene 5
  115. 00:08:58.000 : en:Scene 6
  116. 00:10:14.000 : en:Scene 7
  117. 00:13:55.000 : en:Scene 8
  118. 00:16:44.000 : en:Scene 9
  119. 00:18:45.000 : en:Scene 10
  120. 00:22:43.000 : en:Scene 11
  121. 00:24:56.000 : en:Scene 12
  122. 00:27:54.000 : en:Scene 13
  123. 00:29:47.000 : en:Scene 14
  124. 00:31:05.000 : en:Scene 15
  125. 00:33:20.000 : en:Scene 16
  126. 00:35:55.000 : en:Scene 17
  127. 00:39:22.000 : en:Scene 18
  128. 00:42:02.000 : en:Scene 19
  129. 00:45:45.000 : en:Scene 20
  130. 00:47:27.000 : en:Scene 21
  131. 00:49:58.000 : en:Scene 22
  132. 00:53:12.000 : en:Scene 23
  133. 00:54:43.000 : en:Scene 24
  134. 00:56:23.000 : en:Scene 25
  135. 00:58:02.000 : en:Scene 26
  136. 01:05:26.000 : en:Scene 27
  137. 01:07:36.000 : en:Scene 28
  138. 01:09:49.000 : en:Scene 29
  139. 01:12:20.000 : en:Scene 30
  140. 01:16:09.000 : en:Scene 31
  141. 01:17:55.000 : en:Scene 32
  142. 01:19:27.000 : en:Scene 33
  143. 01:20:34.000 : en:Scene 34
  144. 01:26:33.000 : en:Scene 35
  145. 01:27:48.000 : en:Scene 36
  146. 01:31:22.000 : en:Scene 37
  147. 01:37:52.000 : en:End Credits
复制代码

War of Likes/War.of.Likes.2021.SPANISH.2160p.AMZN.WEB-DL.x265.10bit.HDR10Plus.DDP5.1-4K电影下载

War.of.Likes.2021.SPANISH.2160p.AMZN.WEB-DL.x265.10bit.HDR10Plus.DDP5.1【4K HDR 11.65 GB】
[Hao4K]War.of.Likes.2021.SPANISH.2160p.AMZN.WEB-DL.x265.10bit.HDR10Plus.DDP5.1-S.torrent (58.86 KB)
回复

使用道具 举报

全部回复40

Reneechan 发表于 2021-3-25 16:21:14

Reneechan 沙发

2021-3-25 16:21:14

这个有点搞笑,谢谢分享资源
回复 支持 反对

使用道具 举报

bbgrnnji 发表于 2021-3-25 17:05:48

bbgrnnji 板凳

2021-3-25 17:05:48

这个就不下了,谢谢楼主
回复 支持 反对

使用道具 举报

dragon_walk 发表于 2021-3-25 17:32:07

dragon_walk 地板

2021-3-25 17:32:07

下来看看。片荒
回复 支持 反对

使用道具 举报

gyming708 发表于 2021-3-25 18:20:16

gyming708 5#

2021-3-25 18:20:16

谢谢楼主
回复 支持 反对

使用道具 举报

273030797 发表于 2021-3-25 19:58:26

273030797 6#

2021-3-25 19:58:26

看看怎么样,据说很好笑
回复 支持 反对

使用道具 举报

边城小狗 发表于 2021-3-25 20:02:19

边城小狗 7#

2021-3-25 20:02:19

谢谢楼主
回复 支持 反对

使用道具 举报

leesanity_ 发表于 2021-3-25 22:46:23

leesanity_ 8#

2021-3-25 22:46:23

感谢楼主
回复 支持 反对

使用道具 举报

三天两夜 发表于 2021-3-25 23:42:17

三天两夜 9#

2021-3-25 23:42:17

谢谢分享
回复 支持 反对

使用道具 举报

riskwfn 发表于 2021-3-26 02:43:48

riskwfn 10#

2021-3-26 02:43:48

辛苦了,各位大大了!
回复 支持 反对

使用道具 举报

firevip 发表于 2021-3-26 08:17:48

firevip 11#

2021-3-26 08:17:48


谢谢楼主!
回复 支持 反对

使用道具 举报

dk30129 发表于 2021-3-26 08:54:42

dk30129 12#

2021-3-26 08:54:42

谢谢分享,顶你!!!
回复 支持 反对

使用道具 举报

chbo 发表于 2021-3-26 09:41:57

chbo 13#

2021-3-26 09:41:57

谢谢楼主
回复 支持 反对

使用道具 举报

zengzzs 发表于 2021-3-26 09:49:39

zengzzs 14#

2021-3-26 09:49:39

感谢分享,收藏了
回复 支持 反对

使用道具 举报

ywf6168 发表于 2021-3-26 10:25:25

ywf6168 15#

2021-3-26 10:25:25

有点搞笑,谢谢分享
回复 支持 反对

使用道具 举报

xxw8888 发表于 2021-3-26 10:31:21

xxw8888 16#

2021-3-26 10:31:21

谢谢楼主
回复 支持 反对

使用道具 举报

zyp5588640 发表于 2021-3-26 10:48:39

zyp5588640 17#

2021-3-26 10:48:39

这个是喜剧片吗
回复 支持 反对

使用道具 举报

yale 发表于 2021-3-26 11:49:55

yale 18#

2021-3-26 11:49:55

谢谢分享
回复 支持 反对

使用道具 举报

   发表回复

您需要登录后才可以回帖 登录 | 立即注册

返回列表 本版积分规则

  • 在线客服

  • 返回顶部