微博 微信

Hao4K影音

电影频道
电影封面:
片  名: BLACKPINK:照亮天空 4K
电影分类: 纪录片 
国  家: 美国 
年  代: 2020年
分 辨 率: 4K(3840x2160)
电影格式: MKV|REMUX 
画质标准: HDR 
音质编码: 其他AAC 
电影声道: 5.1声道 2.0声道 
帧数/FPS: 23.976 帧
电影语言: 英文原版 
资源大小: 8.95 GB
导  演: 卡罗琳·萨
豆瓣评分: 7.7 分
中文字幕: -
剧情简介: 自 2016 年 8 月出道以来,BLACKPINK 通过创新的音乐、劲爆的音乐视频和红遍网络的时尚装扮,成为有史以来排名最高的韩国流行音乐女团。《BLACKPINK:LIGHT UP THE SKY》将为 BLACKPINK 的全球粉丝“BLINKs”带来他们前所未见并一直梦寐以求的珍贵点滴。
  这部由卡罗琳·萨(Netflix《星厨烹饪法门》)执导的记录片将深入了解 BLACKPINK 的四名成员:鬼马的团内欧尼(大姐姐)智秀 — 她具有一种独特的幽默感;负责说唱部分的珍妮 — 与舞台上烈火般的表演相反,她私下里说话很柔和;拥有天籁嗓音的彩英 — 在澳大利亚长大的她也是一名出色的唱作歌手;以及舞蹈女王拉莉莎 — 她活力四射的个性总是能成功把其他成员逗笑。
  随着 BLACKPINK 继续在事业上再创新高,从举办占据新闻头条、门票一抢而空的世界巡回演唱会,到作为首个韩国女子组合登上科切拉的舞台,各成员回顾了成名路上的起起伏伏,以及在红遍全球前漫长和艰辛的奋斗之旅。《BLACKPINK:LIGHT UP THE SKY》记录了四位成员平易近人、自然流露的一面。音乐没有国界,也没有语言的障碍,而她们将作为中坚力量,继续把韩国流行音乐带往全世界。
BLACKPINK:点亮夜空 / 粉墨:点亮夜空/BLACKPINK:照亮天空4K.Blackpink.Light.Up.the.Sky.2020.2160p.WEBRip.x265-4k电影信息
  1. Video
  2. ID : 1
  3. Format : HEVC
  4. Format/Info : High Efficiency Video Coding
  5. Format profile : Main@L5.1@High
  6. Codec ID : V_MPEGH/ISO/HEVC
  7. Duration : 1 h 19 min
  8. Bit rate : 15.2 Mb/s
  9. Width : 3 840 pixels
  10. Height : 2 160 pixels
  11. Display aspect ratio : 16:9
  12. Frame rate mode : Constant
  13. Frame rate : 23.976 (24000/1001) FPS
  14. Color space : YUV
  15. Chroma subsampling : 4:2:0
  16. Bit depth : 8 bits
  17. Bits/(Pixel*Frame) : 0.077
  18. Stream size : 8.47 GiB (96%)
  19. Writing library : x265 3.4+36-5239276dd:[Windows][MSVC 1900][64 bit] 8bit
  20. Encoding settings : cpuid=1111039 / frame-threads=4 / numa-pools=16 / wpp / no-pmode / no-pme / no-psnr / no-ssim / log-level=2 / input-csp=1 / input-res=3840x2160 / interlace=0 / total-frames=142929 / level-idc=51 / high-tier=1 / uhd-bd=0 / ref=4 / no-allow-non-conformance / repeat-headers / annexb / aud / hrd / info / hash=0 / no-temporal-layers / no-open-gop / min-keyint=23 / keyint=250 / gop-lookahead=0 / bframes=4 / b-adapt=2 / b-pyramid / bframe-bias=0 / rc-lookahead=25 / lookahead-slices=4 / scenecut=40 / hist-scenecut=0 / radl=0 / no-splice / no-intra-refresh / ctu=64 / min-cu-size=8 / rect / no-amp / max-tu-size=32 / tu-inter-depth=1 / tu-intra-depth=1 / limit-tu=0 / rdoq-level=2 / dynamic-rd=0.00 / no-ssim-rd / signhide / no-tskip / nr-intra=0 / nr-inter=0 / no-constrained-intra / no-strong-intra-smoothing / max-merge=3 / limit-refs=3 / limit-modes / me=3 / subme=3 / merange=57 / temporal-mvp / no-frame-dup / no-hme / weightp / no-weightb / no-analyze-src-pics / deblock=-3:-3 / no-sao / no-sao-non-deblock / rd=4 / selective-sao=0 / no-early-skip / rskip / no-fast-intra / no-tskip-fast / no-cu-lossless / no-b-intra / no-splitrd-skip / rdpenalty=0 / psy-rd=2.00 / psy-rdoq=1.00 / no-rd-refine / no-lossless / cbqpoffs=0 / crqpoffs=0 / rc=crf / crf=17.2 / qcomp=0.60 / qpstep=4 / stats-write=0 / stats-read=0 / vbv-maxrate=160000 / vbv-bufsize=160000 / vbv-init=0.9 / min-vbv-fullness=50.0 / max-vbv-fullness=80.0 / crf-max=0.0 / crf-min=0.0 / ipratio=1.40 / pbratio=1.30 / aq-mode=2 / aq-strength=1.00 / cutree / zone-count=0 / no-strict-cbr / qg-size=32 / no-rc-grain / qpmax=69 / qpmin=0 / no-const-vbv / sar=1 / overscan=0 / videoformat=5 / range=0 / colorprim=1 / transfer=1 / colormatrix=1 / chromaloc=0 / display-window=0 / cll=0,0 / min-luma=0 / max-luma=255 / log2-max-poc-lsb=8 / vui-timing-info / vui-hrd-info / slices=1 / no-opt-qp-pps / no-opt-ref-list-length-pps / no-multi-pass-opt-rps / scenecut-bias=0.05 / hist-threshold=0.03 / no-opt-cu-delta-qp / no-aq-motion / no-hdr10 / no-hdr10-opt / no-dhdr10-opt / no-idr-recovery-sei / analysis-reuse-level=0 / analysis-save-reuse-level=0 / analysis-load-reuse-level=0 / scale-factor=0 / refine-intra=0 / refine-inter=0 / refine-mv=1 / refine-ctu-distortion=0 / no-limit-sao / ctu-info=0 / no-lowpass-dct / refine-analysis-type=0 / copy-pic=1 / max-ausize-factor=1.0 / no-dynamic-refine / no-single-sei / no-hevc-aq / no-svt / no-field / qp-adaptation-range=1.00 / scenecut-aware-qp=0conformance-window-offsets / right=0 / bottom=0 / decoder-max-rate=0 / no-vbv-live-multi-pass
  21. Language : English
  22. Default : Yes
  23. Forced : No
  24. Color range : Limited
  25. Color primaries : BT.709
  26. Transfer characteristics : BT.709
  27. Matrix coefficients : BT.709

  28. Audio
  29. ID : 2
  30. Format : E-AC-3
  31. Format/Info : Enhanced AC-3
  32. Commercial name : Dolby Digital Plus
  33. Codec ID : A_EAC3
  34. Duration : 1 h 19 min
  35. Bit rate mode : Constant
  36. Bit rate : 640 kb/s
  37. Channel(s) : 6 channels
  38. Channel layout : L R C LFE Ls Rs
  39. Sampling rate : 48.0 kHz
  40. Frame rate : 31.250 FPS (1536 SPF)
  41. Compression mode : Lossy
  42. Delay relative to video : 7 ms
  43. Stream size : 364 MiB (4%)
  44. Language : English
  45. Service kind : Complete Main
  46. Default : Yes
  47. Forced : No

  48. Text #1
  49. ID : 3
  50. Format : UTF-8
  51. Codec ID : S_TEXT/UTF8
  52. Codec ID/Info : UTF-8 Plain Text
  53. Duration : 1 h 19 min
  54. Bit rate : 124 b/s
  55. Count of elements : 1104
  56. Stream size : 72.3 KiB (0%)
  57. Language : Greek
  58. Default : No
  59. Forced : No

  60. Text #2
  61. ID : 4
  62. Format : UTF-8
  63. Codec ID : S_TEXT/UTF8
  64. Codec ID/Info : UTF-8 Plain Text
  65. Duration : 1 h 18 min
  66. Bit rate : 100 b/s
  67. Count of elements : 1491
  68. Stream size : 57.8 KiB (0%)
  69. Language : English
  70. Default : No
  71. Forced : No

  72. Text #3
  73. ID : 5
  74. Format : UTF-8
  75. Codec ID : S_TEXT/UTF8
  76. Codec ID/Info : UTF-8 Plain Text
  77. Duration : 1 h 19 min
  78. Bit rate : 68 b/s
  79. Count of elements : 1145
  80. Stream size : 40.0 KiB (0%)
  81. Language : Spanish
  82. Default : No
  83. Forced : No

  84. Text #4
  85. ID : 6
  86. Format : UTF-8
  87. Codec ID : S_TEXT/UTF8
  88. Codec ID/Info : UTF-8 Plain Text
  89. Duration : 1 h 19 min
  90. Bit rate : 73 b/s
  91. Count of elements : 1108
  92. Stream size : 42.7 KiB (0%)
  93. Language : Spanish
  94. Default : No
  95. Forced : No

  96. Text #5
  97. ID : 7
  98. Format : UTF-8
  99. Codec ID : S_TEXT/UTF8
  100. Codec ID/Info : UTF-8 Plain Text
  101. Duration : 1 h 19 min
  102. Bit rate : 72 b/s
  103. Count of elements : 1043
  104. Stream size : 42.2 KiB (0%)
  105. Language : Finnish
  106. Default : No
  107. Forced : No

  108. Text #6
  109. ID : 8
  110. Format : UTF-8
  111. Codec ID : S_TEXT/UTF8
  112. Codec ID/Info : UTF-8 Plain Text
  113. Duration : 1 h 19 min
  114. Bit rate : 70 b/s
  115. Count of elements : 1113
  116. Stream size : 40.9 KiB (0%)
  117. Language : French
  118. Default : No
  119. Forced : No

  120. Text #7
  121. ID : 9
  122. Format : UTF-8
  123. Codec ID : S_TEXT/UTF8
  124. Codec ID/Info : UTF-8 Plain Text
  125. Duration : 1 h 19 min
  126. Bit rate : 64 b/s
  127. Count of elements : 1131
  128. Stream size : 37.4 KiB (0%)
  129. Language : Croatian
  130. Default : No
  131. Forced : No

  132. Text #8
  133. ID : 10
  134. Format : UTF-8
  135. Codec ID : S_TEXT/UTF8
  136. Codec ID/Info : UTF-8 Plain Text
  137. Duration : 1 h 19 min
  138. Bit rate : 70 b/s
  139. Count of elements : 1112
  140. Stream size : 40.8 KiB (0%)
  141. Language : Hungarian
  142. Default : No
  143. Forced : No

  144. Text #9
  145. ID : 11
  146. Format : UTF-8
  147. Codec ID : S_TEXT/UTF8
  148. Codec ID/Info : UTF-8 Plain Text
  149. Duration : 1 h 19 min
  150. Bit rate : 76 b/s
  151. Count of elements : 1133
  152. Stream size : 44.3 KiB (0%)
  153. Language : Indonesian
  154. Default : No
  155. Forced : No

  156. Text #10
  157. ID : 12
  158. Format : UTF-8
  159. Codec ID : S_TEXT/UTF8
  160. Codec ID/Info : UTF-8 Plain Text
  161. Duration : 1 h 19 min
  162. Bit rate : 68 b/s
  163. Count of elements : 1126
  164. Stream size : 39.7 KiB (0%)
  165. Language : Italian
  166. Default : No
  167. Forced : No

  168. Text #11
  169. ID : 13
  170. Format : UTF-8
  171. Codec ID : S_TEXT/UTF8
  172. Codec ID/Info : UTF-8 Plain Text
  173. Duration : 1 h 17 min
  174. Bit rate : 70 b/s
  175. Count of elements : 1088
  176. Stream size : 40.3 KiB (0%)
  177. Language : Czech
  178. Default : No
  179. Forced : No

  180. Text #12
  181. ID : 14
  182. Format : UTF-8
  183. Codec ID : S_TEXT/UTF8
  184. Codec ID/Info : UTF-8 Plain Text
  185. Duration : 1 h 19 min
  186. Bit rate : 69 b/s
  187. Count of elements : 1072
  188. Stream size : 40.6 KiB (0%)
  189. Language : Danish
  190. Default : No
  191. Forced : No

  192. Text #13
  193. ID : 15
  194. Format : UTF-8
  195. Codec ID : S_TEXT/UTF8
  196. Codec ID/Info : UTF-8 Plain Text
  197. Duration : 1 h 19 min
  198. Bit rate : 75 b/s
  199. Count of elements : 1129
  200. Stream size : 43.6 KiB (0%)
  201. Language : German
  202. Default : No
  203. Forced : No

  204. Text #14
  205. ID : 16
  206. Format : UTF-8
  207. Codec ID : S_TEXT/UTF8
  208. Codec ID/Info : UTF-8 Plain Text
  209. Duration : 1 h 19 min
  210. Bit rate : 73 b/s
  211. Count of elements : 1137
  212. Stream size : 42.5 KiB (0%)
  213. Language : Portuguese
  214. Default : No
  215. Forced : No

  216. Text #15
  217. ID : 17
  218. Format : UTF-8
  219. Codec ID : S_TEXT/UTF8
  220. Codec ID/Info : UTF-8 Plain Text
  221. Duration : 1 h 19 min
  222. Bit rate : 116 b/s
  223. Count of elements : 1144
  224. Stream size : 67.9 KiB (0%)
  225. Language : Russian
  226. Default : No
  227. Forced : No

  228. Text #16
  229. ID : 18
  230. Format : UTF-8
  231. Codec ID : S_TEXT/UTF8
  232. Codec ID/Info : UTF-8 Plain Text
  233. Duration : 1 h 19 min
  234. Bit rate : 68 b/s
  235. Count of elements : 959
  236. Stream size : 40.0 KiB (0%)
  237. Language : Swedish
  238. Default : No
  239. Forced : No

  240. Text #17
  241. ID : 19
  242. Format : UTF-8
  243. Codec ID : S_TEXT/UTF8
  244. Codec ID/Info : UTF-8 Plain Text
  245. Duration : 1 h 19 min
  246. Bit rate : 72 b/s
  247. Count of elements : 1099
  248. Stream size : 42.2 KiB (0%)
  249. Language : Turkish
  250. Default : No
  251. Forced : No

  252. Text #18
  253. ID : 20
  254. Format : UTF-8
  255. Codec ID : S_TEXT/UTF8
  256. Codec ID/Info : UTF-8 Plain Text
  257. Duration : 1 h 19 min
  258. Bit rate : 69 b/s
  259. Count of elements : 1044
  260. Stream size : 40.3 KiB (0%)
  261. Language : Malay
  262. Default : No
  263. Forced : No

  264. Text #19
  265. ID : 21
  266. Format : UTF-8
  267. Codec ID : S_TEXT/UTF8
  268. Codec ID/Info : UTF-8 Plain Text
  269. Duration : 1 h 19 min
  270. Bit rate : 68 b/s
  271. Count of elements : 1050
  272. Stream size : 39.7 KiB (0%)
  273. Language : Norwegian Bokmal
  274. Default : No
  275. Forced : No

  276. Text #20
  277. ID : 22
  278. Format : UTF-8
  279. Codec ID : S_TEXT/UTF8
  280. Codec ID/Info : UTF-8 Plain Text
  281. Duration : 1 h 19 min
  282. Bit rate : 70 b/s
  283. Count of elements : 1112
  284. Stream size : 40.9 KiB (0%)
  285. Language : Dutch
  286. Default : No
  287. Forced : No

  288. Text #21
  289. ID : 23
  290. Format : UTF-8
  291. Codec ID : S_TEXT/UTF8
  292. Codec ID/Info : UTF-8 Plain Text
  293. Duration : 1 h 19 min
  294. Bit rate : 68 b/s
  295. Count of elements : 1116
  296. Stream size : 39.8 KiB (0%)
  297. Language : Polish
  298. Default : No
  299. Forced : No

  300. Text #22
  301. ID : 24
  302. Format : UTF-8
  303. Codec ID : S_TEXT/UTF8
  304. Codec ID/Info : UTF-8 Plain Text
  305. Duration : 1 h 19 min
  306. Bit rate : 68 b/s
  307. Count of elements : 1086
  308. Stream size : 39.7 KiB (0%)
  309. Language : Portuguese
  310. Default : No
  311. Forced : No
复制代码

BLACKPINK:点亮夜空 / 粉墨:点亮夜空/BLACKPINK:照亮天空4K.Blackpink.Light.Up.the.Sky.2020.2160p.WEBRip.x265-4K电影下载

BLACKPINK:照亮天空4K.Blackpink.Light.Up.the.Sky.2020.2160p.WEBRip.x265【4K 8.95 GB】
BLACKPINK:照亮天空4K.Blackpink.Light.Up.the.Sky.2020.2160p.WEBRip.x265-LiQUiD.torrent (45.42 KB, 售价: 3 K币)
回复

使用道具 举报

全部回复75

yale 发表于 2021-3-26 20:10:39

yale 沙发

2021-3-26 20:10:39

谢谢分享
回复 支持 反对

使用道具 举报

luozhoulei 发表于 2021-3-26 22:11:29 Hao4K手机版

luozhoulei 板凳

2021-3-26 22:11:29

谢谢!
回复 支持 反对

使用道具 举报

alexlqd 发表于 2021-3-26 23:34:29

alexlqd 地板

2021-3-26 23:34:29

谢谢!谢谢!
回复 支持 反对

使用道具 举报

zppzpp 发表于 2021-3-27 00:18:43

zppzpp 5#

2021-3-27 00:18:43

Lisa!!我来接你回家啦~~
回复 支持 反对

使用道具 举报

xgfp 发表于 2021-3-27 08:04:33

xgfp 6#

2021-3-27 08:04:33

好资源,谢谢分享
回复 支持 反对

使用道具 举报

xgfp 发表于 2021-3-27 08:04:36

xgfp 7#

2021-3-27 08:04:36

好资源,谢谢分享
回复 支持 反对

使用道具 举报

bbgrnnji 发表于 2021-3-27 09:41:32

bbgrnnji 8#

2021-3-27 09:41:32

谢谢楼主,但不知道有没有字幕
回复 支持 反对

使用道具 举报

davidqin 发表于 2021-3-27 10:52:54

davidqin 9#

2021-3-27 10:52:54

谢谢楼主,但不知道有没有字幕
回复 支持 反对

使用道具 举报

多面体小鱼 发表于 2021-3-27 11:02:26

多面体小鱼 10#

2021-3-27 11:02:26

真好 当红女团
回复 支持 反对

使用道具 举报

啊叫啥 发表于 2021-3-27 11:56:21

啊叫啥 11#

2021-3-27 11:56:21


好资源,谢谢分享
回复 支持 反对

使用道具 举报

andywjhh 发表于 2021-3-27 13:54:01

andywjhh 12#

2021-3-27 13:54:01

好资源很给力
回复 支持 反对

使用道具 举报

alexlqd 发表于 2021-3-27 19:35:22

alexlqd 13#

2021-3-27 19:35:22

好资源,谢谢分享
回复 支持 反对

使用道具 举报

iv835 发表于 2021-3-27 21:10:39

iv835 14#

2021-3-27 21:10:39

这群B和后面的经纪公司是**的。
回复 支持 反对

使用道具 举报

kk2sshine 发表于 2021-3-27 21:35:55

kk2sshine 15#

2021-3-27 21:35:55


Lisa!!我来接你回家啦~~
回复 支持 反对

使用道具 举报

星辰大海86 发表于 2021-3-27 21:46:19

星辰大海86 16#

2021-3-27 21:46:19

来看看我家Lisa
回复 支持 反对

使用道具 举报

cb917918 发表于 2021-3-28 07:49:26

cb917918 17#

2021-3-28 07:49:26


好资源,谢谢分享
回复 支持 反对

使用道具 举报

Wczjack 发表于 2021-3-28 08:20:41 Hao4K手机版

Wczjack 18#

2021-3-28 08:20:41

谢谢分享
回复 支持 反对

使用道具 举报

   发表回复

您需要登录后才可以回帖 登录 | 立即注册

返回列表 本版积分规则

  • 在线客服

  • 返回顶部