微博 微信

Hao4K影音

电影频道
电影封面:
片  名: 迷镇凶案4K
电影分类: 犯罪 悬疑 喜剧 
国  家: 美国 
年  代: 2017年
分 辨 率: 4K(3840x2160)
电影格式: MKV|REMUX 
画质标准: SDR 
音质编码: DTS-HD Master Audio 
电影声道: 5.1声道 
帧数/FPS: 23.976 帧
电影语言: 英文原版 
资源大小: 13.68 GB
导  演: 乔治·克鲁尼
豆瓣评分: 6.2 分
中文字幕: -
剧情简介: 20世纪50年代僻静的家乡小镇,中年男子加德纳(马特·达蒙 饰)的妻子在家中被杀害。由此宁静的生活被打破,引发出一连串勒索、骗保、迷情事件。而对面邻居搬来了一家黑人,又因此打破了整个小镇的宁静。家庭危机和小镇危机交织在了一起
完美社区谋杀案(台) / 坚离地死人劫案(港) / 迷镇 / 小镇郊区/迷镇凶案4K.Suburbicon.2017.2160p.WEB-DL.x265.8bit.SDR.DTS-HD.MA.5.1-4k电影信息
  1. Video
  2. ID : 1
  3. Format : HEVC
  4. Format/Info : High Efficiency Video Coding
  5. Format profile : Main@L5@Main
  6. Codec ID : V_MPEGH/ISO/HEVC
  7. Duration : 1 h 45 min
  8. Bit rate : 14.8 Mb/s
  9. Width : 3 840 pixels
  10. Height : 2 160 pixels
  11. Display aspect ratio : 16:9
  12. Frame rate mode : Constant
  13. Frame rate : 23.976 (24000/1001) FPS
  14. Color space : YUV
  15. Chroma subsampling : 4:2:0
  16. Bit depth : 8 bits
  17. Bits/(Pixel*Frame) : 0.075
  18. Stream size : 10.9 GiB (80%)
  19. Writing library : x265 2.0+16-215eedc9ecc0:[Linux][GCC 4.4.7][64 bit] 8bit
  20. Encoding settings : wpp / ctu=64 / min-cu-size=8 / max-tu-size=32 / tu-intra-depth=1 / tu-inter-depth=1 / me=2 / subme=3 / merange=64 / rect / no-amp / max-merge=3 / temporal-mvp / no-early-skip / no-rskip / rdpenalty=0 / no-tskip / no-tskip-fast / strong-intra-smoothing / no-lossless / no-cu-lossless / no-constrained-intra / no-fast-intra / no-open-gop / no-temporal-layers / interlace=0 / keyint=48 / min-keyint=4 / scenecut=0 / rc-lookahead=80 / lookahead-slices=4 / bframes=4 / bframe-bias=0 / b-adapt=2 / ref=3 / limit-refs=3 / limit-modes / weightp / no-weightb / aq-mode=0 / qg-size=32 / aq-strength=0.00 / cbqpoffs=0 / crqpoffs=0 / rd=4 / psy-rd=4.00 / rdoq-level=2 / psy-rdoq=10.00 / log2-max-poc-lsb=8 / no-rd-refine / signhide / deblock=0:0 / no-sao / no-sao-non-deblock / b-pyramid / no-cutree / no-intra-refresh / rc=abr / bitrate=15000 / qcomp=0.60 / qpmin=0 / qpmax=69 / qpstep=1 / vbv-maxrate=22500 / vbv-bufsize=22500 / ipratio=1.10 / pbratio=1.00
  21. Default : Yes
  22. Forced : No
  23. Color range : Limited
  24. Color primaries : BT.709
  25. Transfer characteristics : BT.709
  26. Matrix coefficients : BT.709

  27. Audio #1
  28. ID : 2
  29. Format : DTS XLL
  30. Format/Info : Digital Theater Systems
  31. Commercial name : DTS-HD Master Audio
  32. Codec ID : A_DTS
  33. Duration : 1 h 45 min
  34. Bit rate mode : Variable
  35. Bit rate : 3 560 kb/s
  36. Channel(s) : 6 channels
  37. Channel layout : C L R Ls Rs LFE
  38. Sampling rate : 48.0 kHz
  39. Frame rate : 93.750 FPS (512 SPF)
  40. Bit depth : 24 bits
  41. Compression mode : Lossless
  42. Delay relative to video : 1 ms
  43. Stream size : 2.61 GiB (19%)
  44. Title : DTS-HD MA 5.1
  45. Language : English
  46. Default : Yes
  47. Forced : No

  48. Audio #2
  49. ID : 3
  50. Format : E-AC-3
  51. Format/Info : Enhanced AC-3
  52. Commercial name : Dolby Digital Plus
  53. Codec ID : A_EAC3
  54. Duration : 1 h 45 min
  55. Bit rate mode : Constant
  56. Bit rate : 256 kb/s
  57. Channel(s) : 6 channels
  58. Channel layout : L R C LFE Ls Rs
  59. Sampling rate : 48.0 kHz
  60. Frame rate : 31.250 FPS (1536 SPF)
  61. Compression mode : Lossy
  62. Stream size : 192 MiB (1%)
  63. Title : English
  64. Language : English
  65. Service kind : Complete Main
  66. Default : No
  67. Forced : No

  68. Text
  69. ID : 4
  70. Format : UTF-8
  71. Codec ID : S_TEXT/UTF8
  72. Codec ID/Info : UTF-8 Plain Text
  73. Duration : 1 h 35 min
  74. Bit rate : 61 b/s
  75. Count of elements : 1424
  76. Stream size : 42.8 KiB (0%)
  77. Title : English
  78. Language : English
  79. Default : Yes
  80. Forced : No

  81. Menu
  82. 00:00:00.000 : en:00:00:00.000
  83. 00:04:50.165 : en:00:04:50.165
  84. 00:15:11.452 : en:00:15:11.452
  85. 00:23:09.305 : en:00:23:09.305
  86. 00:33:08.612 : en:00:33:08.612
  87. 00:39:36.916 : en:00:39:36.916
  88. 00:44:29.125 : en:00:44:29.125
  89. 00:49:19.540 : en:00:49:19.540
  90. 00:56:36.560 : en:00:56:36.560
  91. 01:05:06.778 : en:01:05:06.778
  92. 01:14:14.283 : en:01:14:14.283
  93. 01:23:46.855 : en:01:23:46.855
  94. 01:27:54.352 : en:01:27:54.352
  95. 01:33:47.914 : en:01:33:47.914
  96. 01:37:15.204 : en:01:37:15.204
复制代码

完美社区谋杀案(台) / 坚离地死人劫案(港) / 迷镇 / 小镇郊区/迷镇凶案4K.Suburbicon.2017.2160p.WEB-DL.x265.8bit.SDR.DTS-HD.MA.5.1-4K电影下载

迷镇凶案4K.Suburbicon.2017.2160p.WEB-DL.x265.8bit.SDR.DTS-HD.MA.5.1【4K SDR 13.68 GB】
[Hao4K]迷镇凶案4K.Suburbicon.2017.2160p.WEB-DL.x265.8bit.SDR.DTS-HD.MA.5.1-SWTYBLZ.torrent (68.95 KB, 售价: 1 K币)
回复

使用道具 举报

全部回复40

ROCKEYBUNNY 发表于 2021-3-31 12:16:30

ROCKEYBUNNY 沙发

2021-3-31 12:16:30

感谢分享
回复 支持 反对

使用道具 举报

bbgrnnji 发表于 2021-3-31 12:49:36

bbgrnnji 板凳

2021-3-31 12:49:36

终于来新东西了,谢谢
回复 支持 反对

使用道具 举报

bonna 发表于 2021-3-31 13:03:48

bonna 地板

2021-3-31 13:03:48

乔治·克鲁尼、马特·达蒙。
回复 支持 反对

使用道具 举报

atom1 发表于 2021-3-31 14:04:06 Hao4K手机版

atom1 5#

2021-3-31 14:04:06

谢谢分享!
回复 支持 反对

使用道具 举报

hdq001300 发表于 2021-3-31 14:24:55

hdq001300 6#

2021-3-31 14:24:55

谢谢分享!
回复 支持 反对

使用道具 举报

啊叫啥 发表于 2021-3-31 18:26:03

啊叫啥 7#

2021-3-31 18:26:03

谢谢分享。
回复 支持 反对

使用道具 举报

aexp 发表于 2021-3-31 19:48:09

aexp 8#

2021-3-31 19:48:09

爱了 楼主
回复 支持 反对

使用道具 举报

SoulLost 发表于 2021-3-31 20:29:37

SoulLost 9#

2021-3-31 20:29:37

感谢分享
回复 支持 反对

使用道具 举报

13143759029 发表于 2021-3-31 21:05:41

13143759029 10#

2021-3-31 21:05:41

谢谢分享!
回复 支持 反对

使用道具 举报

dragon_walk 发表于 2021-3-31 21:55:40

dragon_walk 11#

2021-3-31 21:55:40

下来就看,多谢分享
回复 支持 反对

使用道具 举报

yale 发表于 2021-3-31 22:29:42

yale 12#

2021-3-31 22:29:42

谢谢分享
回复 支持 反对

使用道具 举报

lpsjackson 发表于 2021-4-1 00:46:22 Hao4K手机版

lpsjackson 13#

2021-4-1 00:46:22

谢谢分享了
回复 支持 反对

使用道具 举报

dyczw 发表于 2021-4-1 06:48:00

dyczw 14#

2021-4-1 06:48:00

感谢分享,辛苦了!!!
回复 支持 反对

使用道具 举报

phskytom 发表于 2021-4-1 08:22:47

phskytom 15#

2021-4-1 08:22:47

马克的片子,必看
回复 支持 反对

使用道具 举报

忙碌的蚂蚁 发表于 2021-4-1 11:04:07

忙碌的蚂蚁 16#

2021-4-1 11:04:07

感谢分享!虽然评分有点低
回复 支持 反对

使用道具 举报

andywjhh 发表于 2021-4-1 14:09:51

andywjhh 17#

2021-4-1 14:09:51

好资源很给力
回复 支持 反对

使用道具 举报

cts0101 发表于 2021-4-1 17:34:21

cts0101 18#

2021-4-1 17:34:21

这个很好的啊,喜欢!
回复 支持 反对

使用道具 举报

   发表回复

您需要登录后才可以回帖 登录 | 立即注册

返回列表 本版积分规则

  • 在线客服

  • 返回顶部