微博 微信

Hao4K影音

电影频道
电影封面:
片  名: 佛罗里达乐园4K
电影分类: 剧情 儿童 
国  家: 美国 
年  代: 2017年
分 辨 率: 4K(3840x2160)
电影格式: MKV|REMUX 
画质标准: SDR 
音质编码: DTS-HD Master Audio 
电影声道: 5.1声道 
帧数/FPS: 23.796 帧
电影语言: 英文原版 
资源大小: 14.30 GB
导  演: 肖恩·贝克
豆瓣评分: 8.1 分
中文字幕: /thread-55792-1-1.html
剧情简介: 本片描述了几个六岁左右的孩子的暑假憧憬,而守护着他们阳光般笑容的大人们实则每天在为生活拼搏。
欢迎光临梦幻乐园(港) / 欢迎光临奇幻城堡(台) / 迪士尼的夏天 / 佛罗里达公租乐事 / 佛罗里达廉租房 / 佛罗里达项目 / 佛罗里达计划 / 佛罗里达工程 / 佛罗里达贫民区/佛罗里达乐园4K.The.Florida.Project.2017.2160p.WEB-DL.x265.8bit.SDR.DTS-HD.MA.5.1-4k电影信息
  1. Video
  2. ID : 1
  3. Format : HEVC
  4. Format/Info : High Efficiency Video Coding
  5. Format profile : Main@L5@Main
  6. Codec ID : V_MPEGH/ISO/HEVC
  7. Duration : 1 h 51 min
  8. Bit rate : 14.9 Mb/s
  9. Width : 3 840 pixels
  10. Height : 2 160 pixels
  11. Display aspect ratio : 16:9
  12. Frame rate mode : Constant
  13. Frame rate : 24.000 FPS
  14. Color space : YUV
  15. Chroma subsampling : 4:2:0
  16. Bit depth : 8 bits
  17. Bits/(Pixel*Frame) : 0.075
  18. Stream size : 11.6 GiB (81%)
  19. Writing library : x265 2.0+16-215eedc9ecc0:[Linux][GCC 4.4.7][64 bit] 8bit
  20. Encoding settings : wpp / ctu=64 / min-cu-size=8 / max-tu-size=32 / tu-intra-depth=1 / tu-inter-depth=1 / me=2 / subme=3 / merange=64 / rect / no-amp / max-merge=3 / temporal-mvp / no-early-skip / no-rskip / rdpenalty=0 / no-tskip / no-tskip-fast / strong-intra-smoothing / no-lossless / no-cu-lossless / no-constrained-intra / no-fast-intra / no-open-gop / no-temporal-layers / interlace=0 / keyint=48 / min-keyint=4 / scenecut=0 / rc-lookahead=80 / lookahead-slices=4 / bframes=4 / bframe-bias=0 / b-adapt=2 / ref=3 / limit-refs=3 / limit-modes / weightp / no-weightb / aq-mode=0 / qg-size=32 / aq-strength=0.00 / cbqpoffs=0 / crqpoffs=0 / rd=4 / psy-rd=4.00 / rdoq-level=2 / psy-rdoq=10.00 / log2-max-poc-lsb=8 / no-rd-refine / signhide / deblock=0:0 / no-sao / no-sao-non-deblock / b-pyramid / no-cutree / no-intra-refresh / rc=abr / bitrate=15000 / qcomp=0.60 / qpmin=0 / qpmax=69 / qpstep=1 / vbv-maxrate=22500 / vbv-bufsize=22500 / ipratio=1.10 / pbratio=1.00
  21. Language : English
  22. Default : Yes
  23. Forced : No
  24. Color range : Limited
  25. Color primaries : BT.709
  26. Transfer characteristics : BT.709
  27. Matrix coefficients : BT.709

  28. Audio #1
  29. ID : 2
  30. Format : DTS XLL
  31. Format/Info : Digital Theater Systems
  32. Commercial name : DTS-HD Master Audio
  33. Codec ID : A_DTS
  34. Duration : 1 h 51 min
  35. Bit rate mode : Variable
  36. Bit rate : 3 220 kb/s
  37. Channel(s) : 6 channels
  38. Channel layout : C L R Ls Rs LFE
  39. Sampling rate : 48.0 kHz
  40. Frame rate : 93.750 FPS (512 SPF)
  41. Bit depth : 24 bits
  42. Compression mode : Lossless
  43. Stream size : 2.51 GiB (18%)
  44. Title : DTS-HD MA 5.1
  45. Language : English
  46. Default : Yes
  47. Forced : No

  48. Audio #2
  49. ID : 3
  50. Format : E-AC-3
  51. Format/Info : Enhanced AC-3
  52. Commercial name : Dolby Digital Plus
  53. Codec ID : A_EAC3
  54. Duration : 1 h 51 min
  55. Bit rate mode : Constant
  56. Bit rate : 256 kb/s
  57. Channel(s) : 6 channels
  58. Channel layout : L R C LFE Ls Rs
  59. Sampling rate : 48.0 kHz
  60. Frame rate : 31.250 FPS (1536 SPF)
  61. Compression mode : Lossy
  62. Stream size : 204 MiB (1%)
  63. Title : English
  64. Language : English
  65. Service kind : Complete Main
  66. Default : No
  67. Forced : No

  68. Text
  69. ID : 4
  70. Format : UTF-8
  71. Codec ID : S_TEXT/UTF8
  72. Codec ID/Info : UTF-8 Plain Text
  73. Duration : 1 h 51 min
  74. Bit rate : 72 b/s
  75. Count of elements : 1743
  76. Stream size : 58.7 KiB (0%)
  77. Title : English
  78. Language : English
  79. Default : Yes
  80. Forced : No
复制代码

欢迎光临梦幻乐园(港) / 欢迎光临奇幻城堡(台) / 迪士尼的夏天 / 佛罗里达公租乐事 / 佛罗里达廉租房 / 佛罗里达项目 / 佛罗里达计划 / 佛罗里达工程 / 佛罗里达贫民区/佛罗里达乐园4K.The.Florida.Project.2017.2160p.WEB-DL.x265.8bit.SDR.DTS-HD.MA.5.1-4K电影下载

佛罗里达乐园4K.The.Florida.Project.2017.2160p.WEB-DL.x265.8bit.SDR.DTS-HD.MA.5.1【4K SDR 14.30 GB】
[Hao4K]佛罗里达乐园4K.The.Florida.Project.2017.2160p.WEB-DL.x265.8bit.SDR.DTS-HD.torrent (72.09 KB, 售价: 2 K币)
回复

使用道具 举报

全部回复23

yangly 发表于 2021-3-31 11:48:16

yangly 沙发

2021-3-31 11:48:16

儿童题材片,谢谢分享
回复 支持 反对

使用道具 举报

苏默金武 发表于 2021-3-31 12:09:13

苏默金武 板凳

2021-3-31 12:09:13

https://www.hao4k.cn/thread-55792-1-1.html 双语字幕已提供下载!!!
回复 支持 反对

使用道具 举报

bbgrnnji 发表于 2021-3-31 12:58:00

bbgrnnji 地板

2021-3-31 12:58:00

不错的电影,谢谢
回复 支持 反对

使用道具 举报

bonna 发表于 2021-3-31 13:05:00

bonna 5#

2021-3-31 13:05:00

大人们每天在为生活拼搏。
回复 支持 反对

使用道具 举报

nasa2k 发表于 2021-3-31 15:24:22

nasa2k 6#

2021-3-31 15:24:22

作为一个小白,弱弱的问一句,如何免费获得资源呢
回复 支持 反对

使用道具 举报

daowang 发表于 2021-3-31 21:53:12

daowang 7#

2021-3-31 21:53:12

nasa2k 发表于 2021-3-31 15:24
作为一个小白,弱弱的问一句,如何免费获得资源呢

登录—签到—获得积分币—用积分币购买附件
回复 支持 反对

使用道具 举报

dragon_walk 发表于 2021-3-31 21:54:53

dragon_walk 8#

2021-3-31 21:54:53

收藏下载
回复 支持 反对

使用道具 举报

yale 发表于 2021-3-31 22:30:09

yale 9#

2021-3-31 22:30:09

谢谢分享
回复 支持 反对

使用道具 举报

dyczw 发表于 2021-4-1 06:47:34

dyczw 10#

2021-4-1 06:47:34

感谢分享,辛苦了。
回复 支持 反对

使用道具 举报

罗洋 发表于 2021-4-1 11:43:00

罗洋 11#

2021-4-1 11:43:00

记得这片子蛮不错的,喜欢片中的悠闲环境。
回复 支持 反对

使用道具 举报

andywjhh 发表于 2021-4-1 11:49:43

andywjhh 12#

2021-4-1 11:49:43

好资源很给力
回复 支持 反对

使用道具 举报

世爵39 发表于 2021-4-2 08:18:56

世爵39 13#

2021-4-2 08:18:56

大人们每天在为生活拼搏
回复 支持 反对

使用道具 举报

世爵39 发表于 2021-4-2 08:22:46

世爵39 14#

2021-4-2 08:22:46

这类影片也不错,够温馨
回复 支持 反对

使用道具 举报

世爵39 发表于 2021-4-2 08:23:07

世爵39 15#

2021-4-2 08:23:07

这种题材不错
回复 支持 反对

使用道具 举报

世爵39 发表于 2021-4-2 08:27:22

世爵39 16#

2021-4-2 08:27:22

记得这片子蛮不错的,喜欢片中的悠闲环境
回复 支持 反对

使用道具 举报

caohenghu 发表于 2021-4-4 11:59:28

caohenghu 17#

2021-4-4 11:59:28

感谢楼主
回复 支持 反对

使用道具 举报

cb917918 发表于 2021-4-5 08:30:48

cb917918 18#

2021-4-5 08:30:48

感谢分享,辛苦了
回复 支持 反对

使用道具 举报

   发表回复

您需要登录后才可以回帖 登录 | 立即注册

返回列表 本版积分规则

  • 在线客服

  • 返回顶部