微博 微信

Hao4K影音

电影频道
电影封面:
片  名: 玻璃城堡
电影分类: 剧情 传记 
国  家: 美国 
年  代: 2017年
分 辨 率: 4K(3840x2160)
电影格式: MKV|REMUX 
画质标准: HDR 
音质编码: Dolby-TrueHD 
电影声道: 7.1声道 
帧数/FPS: 23.976 帧
电影语言: 英文原版 
资源大小: 16.45 GB
导  演: 德斯汀·克里顿
豆瓣评分: 7.6 分
中文字幕: /thread-55791-1-1.html
剧情简介: 萝丝(娜奥米·沃茨 Naomi Watts 饰)是一名才华横溢的画家,虽然她拥有着价值百万美金的土地,但是却依然选择去过食不果腹居无定所的流浪生活。这样一个女人,嫁给了一个名为雷克斯(伍迪·哈里森 Woody Harrelson 饰)的男人,雷克斯比萝丝还要离谱,是一个整天酒瓶不离手的空想主义者。两人生了四个孩子珍妮特(布丽·拉尔森 Brie Larson 饰)、萝莉(萨拉·斯诺克 Sarah Snook 饰)、布兰(Josh Barclay Caras 饰)和莫林(布里盖特·伦迪-佩恩 Brigette Lundy-Paine 饰)。
  虽然这对父母非常的不靠谱,但四个孩子们生长在如此自由的家庭氛围里,享受到了快乐的童年。可是,随着年岁的增长,这个家庭的弊端逐渐显现,孩子们很快就发现,他们必须学会互相照料。
玻璃城堡4K.The.Glass.Castle.2017.2160p.WEB-DL.x265.10bit.HDR.TrueHD.7.1-4k电影信息
  1. Video
  2. ID : 1
  3. Format : HEVC
  4. Format/Info : High Efficiency Video Coding
  5. Format profile : Main 10@L5@Main
  6. HDR format : SMPTE ST 2086, HDR10 compatible
  7. Codec ID : V_MPEGH/ISO/HEVC
  8. Duration : 2 h 6 min
  9. Bit rate : 15.0 Mb/s
  10. Width : 3 840 pixels
  11. Height : 2 160 pixels
  12. Display aspect ratio : 16:9
  13. Frame rate mode : Constant
  14. Frame rate : 23.976 (24000/1001) FPS
  15. Original frame rate : 23.976 (23976/1000) FPS
  16. Color space : YUV
  17. Chroma subsampling : 4:2:0 (Type 2)
  18. Bit depth : 10 bits
  19. Bits/(Pixel*Frame) : 0.075
  20. Stream size : 13.3 GiB (81%)
  21. Writing library : x265 3.0:[Linux][GCC 4.8.5][64 bit] 10bit
  22. Encoding settings : cpuid=1111039 / frame-threads=6 / wpp / no-pmode / no-pme / no-psnr / no-ssim / log-level=2 / input-csp=1 / input-res=3840x2160 / interlace=0 / total-frames=0 / level-idc=50 / high-tier=1 / uhd-bd=0 / ref=3 / no-allow-non-conformance / repeat-headers / annexb / no-aud / no-hrd / info / hash=0 / no-temporal-layers / no-open-gop / min-keyint=48 / keyint=48 / gop-lookahead=0 / bframes=4 / b-adapt=2 / b-pyramid / bframe-bias=0 / rc-lookahead=48 / lookahead-slices=4 / scenecut=40 / radl=0 / no-splice / no-intra-refresh / ctu=64 / min-cu-size=8 / rect / no-amp / max-tu-size=32 / tu-inter-depth=1 / tu-intra-depth=1 / limit-tu=0 / rdoq-level=2 / dynamic-rd=0.00 / no-ssim-rd / signhide / no-tskip / nr-intra=0 / nr-inter=0 / no-constrained-intra / strong-intra-smoothing / max-merge=3 / limit-refs=3 / limit-modes / me=2 / subme=3 / merange=57 / temporal-mvp / weightp / no-weightb / no-analyze-src-pics / deblock=0:0 / no-sao / no-sao-non-deblock / rd=4 / no-early-skip / no-rskip / no-fast-intra / no-tskip-fast / no-cu-lossless / no-b-intra / no-splitrd-skip / rdpenalty=0 / psy-rd=4.00 / psy-rdoq=10.00 / no-rd-refine / no-lossless / cbqpoffs=0 / crqpoffs=0 / rc=abr / bitrate=15000 / qcomp=0.60 / qpstep=1 / stats-write=0 / stats-read=0 / vbv-maxrate=22500 / vbv-bufsize=22500 / vbv-init=0.9 / ipratio=1.10 / pbratio=1.00 / aq-mode=0 / aq-strength=0.00 / no-cutree / zone-count=0 / no-strict-cbr / qg-size=32 / rc-grain / qpmax=69 / qpmin=0 / const-vbv / sar=1 / overscan=0 / videoformat=5 / range=0 / colorprim=9 / transfer=16 / colormatrix=9 / chromaloc=1 / chromaloc-top=2 / chromaloc-bottom=2 / display-window=0 / master-display=G(13250,34500)B(7500,3000)R(34000,16000)WP(15635,16450)L(40000000,50) / max-cll=3361,440 / min-luma=0 / max-luma=1023 / log2-max-poc-lsb=8 / vui-timing-info / vui-hrd-info / slices=1 / no-opt-qp-pps / no-opt-ref-list-length-pps / no-multi-pass-opt-rps / scenecut-bias=0.05 / no-opt-cu-delta-qp / no-aq-motion / hdr / no-hdr-opt / no-dhdr10-opt / no-idr-recovery-sei / analysis-reuse-level=5 / scale-factor=0 / refine-intra=0 / refine-inter=0 / refine-mv=0 / refine-ctu-distortion=0 / no-limit-sao / ctu-info=0 / no-lowpass-dct / refine-analysis-type=0 / copy-pic=1 / max-ausize-factor=1.0 / no-dynamic-refine / no-single-sei / no-hevc-aq / qp-adaptation-range=1.00
  23. Default : Yes
  24. Forced : No
  25. Color range : Limited
  26. Color primaries : BT.2020
  27. Transfer characteristics : PQ
  28. Matrix coefficients : BT.2020 non-constant
  29. Mastering display color primaries : Display P3
  30. Mastering display luminance : min: 0.0050 cd/m2, max: 4000 cd/m2
  31. Maximum Content Light Level : 3361 cd/m2
  32. Maximum Frame-Average Light Level : 440 cd/m2

  33. Audio #1
  34. ID : 2
  35. Format : MLP FBA
  36. Format/Info : Meridian Lossless Packing FBA
  37. Commercial name : Dolby TrueHD
  38. Codec ID : A_TRUEHD
  39. Duration : 2 h 6 min
  40. Bit rate mode : Variable
  41. Bit rate : 2 865 kb/s
  42. Maximum bit rate : 4 608 kb/s
  43. Channel(s) : 8 channels
  44. Channel layout : L R C LFE Ls Rs Lb Rb
  45. Sampling rate : 48.0 kHz
  46. Frame rate : 1 200.000 FPS (40 SPF)
  47. Compression mode : Lossless
  48. Stream size : 2.54 GiB (15%)
  49. Title : TrueHD 7.1
  50. Language : English
  51. Default : Yes
  52. Forced : No

  53. Audio #2
  54. ID : 3
  55. Format : AC-3
  56. Format/Info : Audio Coding 3
  57. Commercial name : Dolby Digital
  58. Codec ID : A_AC3
  59. Duration : 2 h 6 min
  60. Bit rate mode : Constant
  61. Bit rate : 640 kb/s
  62. Channel(s) : 6 channels
  63. Channel layout : L R C LFE Ls Rs
  64. Sampling rate : 48.0 kHz
  65. Frame rate : 31.250 FPS (1536 SPF)
  66. Compression mode : Lossy
  67. Stream size : 581 MiB (3%)
  68. Title : DD 5.1
  69. Language : English
  70. Service kind : Complete Main
  71. Default : No
  72. Forced : No

  73. Text #1
  74. ID : 4
  75. Format : UTF-8
  76. Codec ID : S_TEXT/UTF8
  77. Codec ID/Info : UTF-8 Plain Text
  78. Duration : 2 h 1 min
  79. Bit rate : 61 b/s
  80. Count of elements : 1640
  81. Stream size : 55.1 KiB (0%)
  82. Language : English
  83. Default : Yes
  84. Forced : No

  85. Text #2
  86. ID : 5
  87. Format : UTF-8
  88. Codec ID : S_TEXT/UTF8
  89. Codec ID/Info : UTF-8 Plain Text
  90. Duration : 2 h 1 min
  91. Bit rate : 68 b/s
  92. Count of elements : 1793
  93. Stream size : 60.8 KiB (0%)
  94. Title : SDH
  95. Language : English
  96. Default : No
  97. Forced : No

  98. Menu
  99. 00:00:00.000 : en:00:00:00.000
  100. 00:08:15.453 : en:00:08:15.453
  101. 00:15:33.182 : en:00:15:33.182
  102. 00:21:33.292 : en:00:21:33.292
  103. 00:29:25.931 : en:00:29:25.931
  104. 00:37:11.187 : en:00:37:11.187
  105. 00:43:54.840 : en:00:43:54.840
  106. 00:51:53.485 : en:00:51:53.485
  107. 01:00:29.334 : en:01:00:29.334
  108. 01:07:59.659 : en:01:07:59.659
  109. 01:14:05.816 : en:01:14:05.816
  110. 01:24:52.504 : en:01:24:52.504
  111. 01:29:27.696 : en:01:29:27.696
  112. 01:37:47.236 : en:01:37:47.236
  113. 01:45:53.263 : en:01:45:53.263
  114. 01:55:49.484 : en:01:55:49.484
复制代码

玻璃城堡4K.The.Glass.Castle.2017.2160p.WEB-DL.x265.10bit.HDR.TrueHD.7.1-4K电影下载

玻璃城堡4K.The.Glass.Castle.2017.2160p.WEB-DL.x265.10bit.HDR.TrueHD.7.1【4K HDR 16.45 GB】
[Hao4K]玻璃城堡4K.The.Glass.Castle.2017.2160p.WEB-DL.x265.10bit.HDR.TrueHD.7.1-S.torrent (82.8 KB, 售价: 2 K币)
回复

使用道具 举报

全部回复21

18520199909 发表于 2021-3-31 11:32:19 Hao4K手机版

18520199909 沙发

2021-3-31 11:32:19

挺有意义的一部片子
回复 支持 反对

使用道具 举报

苏默金武 发表于 2021-3-31 12:09:40

苏默金武 板凳

2021-3-31 12:09:40

https://www.hao4k.cn/thread-55791-1-1.html 中文字幕已提供下载!!!
回复 支持 反对

使用道具 举报

黑缘 发表于 2021-3-31 12:46:30

黑缘 地板

2021-3-31 12:46:30

感谢分享
回复 支持 反对

使用道具 举报

bbgrnnji 发表于 2021-3-31 12:53:23

bbgrnnji 5#

2021-3-31 12:53:23

娜奥米·沃茨和伍迪·哈里森都是不错的演员
回复 支持 反对

使用道具 举报

bonna 发表于 2021-3-31 13:06:04

bonna 6#

2021-3-31 13:06:04

导演:        德斯汀·克里顿
回复 支持 反对

使用道具 举报

hwp1125 发表于 2021-3-31 13:25:01

hwp1125 7#

2021-3-31 13:25:01

感谢分享
回复 支持 反对

使用道具 举报

liyun80000 发表于 2021-3-31 14:22:47

liyun80000 8#

2021-3-31 14:22:47

感谢分享
回复 支持 反对

使用道具 举报

dk30129 发表于 2021-3-31 18:42:37

dk30129 9#

2021-3-31 18:42:37

谢谢分享,辛苦了!
回复 支持 反对

使用道具 举报

恒星枪神 发表于 2021-3-31 18:52:43

恒星枪神 10#

2021-3-31 18:52:43

谢谢分享,辛苦了!
回复 支持 反对

使用道具 举报

fsh13400021267 发表于 2021-3-31 20:07:48

fsh13400021267 11#

2021-3-31 20:07:48

感谢分享
回复 支持 反对

使用道具 举报

zn6891 发表于 2021-3-31 21:50:42

zn6891 12#

2021-3-31 21:50:42

感谢分享,找了很久
回复 支持 反对

使用道具 举报

dragon_walk 发表于 2021-3-31 21:50:56

dragon_walk 13#

2021-3-31 21:50:56

分不低啊。谢谢分享
回复 支持 反对

使用道具 举报

yale 发表于 2021-3-31 22:30:51

yale 14#

2021-3-31 22:30:51

谢谢分享
回复 支持 反对

使用道具 举报

dyczw 发表于 2021-4-1 06:47:15

dyczw 15#

2021-4-1 06:47:15

感谢分享,辛苦了!
回复 支持 反对

使用道具 举报

福星高高照 发表于 2021-4-1 08:19:24

福星高高照 16#

2021-4-1 08:19:24

有启发的电影,不错
回复 支持 反对

使用道具 举报

ywf6168 发表于 2021-4-1 09:52:51

ywf6168 17#

2021-4-1 09:52:51

感谢分享,不错的电影
回复 支持 反对

使用道具 举报

ywf6168 发表于 2021-4-1 09:53:04

ywf6168 18#

2021-4-1 09:53:04

感谢分享,辛苦了
回复 支持 反对

使用道具 举报

   发表回复

您需要登录后才可以回帖 登录 | 立即注册

返回列表 本版积分规则

  • 在线客服

  • 返回顶部