微博 微信

Hao4K影音

电影频道
电影封面:
片  名: 恋恋初夏4K
电影分类: 剧情 
国  家: 其他 
年  代: 2020年
分 辨 率: 4K(3840x2160)
电影格式: MKV|REMUX 
画质标准: SDR 
音质编码: Dolby Digital Plus Audio 
电影声道: 5.1声道 
帧数/FPS: 23.976 帧
电影语言: 英文原版 
资源大小: 8.29 GB
导  演: Katie Found
豆瓣评分: 6.7 分
中文字幕: -
剧情简介:  16岁的Claudia在与世隔绝的环境中长大。母亲的离世令她被困在一处偏僻的房子里,当Grace像海市蜃楼一样出现在花园里,呼吸着新鲜的甜味空气时,她感到震惊。在与母**处的16年里,Claudia从未真正接触过外部世界,而除了母亲,也没有任何人知道她的存在。Claudia关于人际关系的理解充满了母亲带给她的负面影响,Grace让她克服了恐惧,渐渐卸下心防。
两人从彼此身上找到了所需要的支持、爱和亲密。
夏日滋味/恋恋初夏4k.My.First.Summer.2020.2160p.WEB-DL.x265.8bit.SDR.DDP5.1-4k电影信息
  1. Video
  2. ID : 1
  3. Format : HEVC
  4. Format/Info : High Efficiency Video Coding
  5. Format profile : Main@L5@High
  6. Codec ID : V_MPEGH/ISO/HEVC
  7. Duration : 1 h 17 min
  8. Bit rate : 14.8 Mb/s
  9. Width : 3 840 pixels
  10. Height : 2 160 pixels
  11. Display aspect ratio : 16:9
  12. Frame rate mode : Constant
  13. Frame rate : 24.000 FPS
  14. Color space : YUV
  15. Chroma subsampling : 4:2:0
  16. Bit depth : 8 bits
  17. Bits/(Pixel*Frame) : 0.075
  18. Stream size : 8.08 GiB (97%)
  19. Default : Yes
  20. Forced : No
  21. Color range : Limited
  22. Color primaries : BT.709
  23. Transfer characteristics : BT.709
  24. Matrix coefficients : BT.709

  25. Audio
  26. ID : 2
  27. Format : E-AC-3
  28. Format/Info : Enhanced AC-3
  29. Commercial name : Dolby Digital Plus
  30. Codec ID : A_EAC3
  31. Duration : 1 h 17 min
  32. Bit rate mode : Constant
  33. Bit rate : 384 kb/s
  34. Channel(s) : 6 channels
  35. Channel layout : L R C LFE Ls Rs
  36. Sampling rate : 48.0 kHz
  37. Frame rate : 31.250 FPS (1536 SPF)
  38. Compression mode : Lossy
  39. Stream size : 214 MiB (3%)
  40. Language : English
  41. Service kind : Complete Main
  42. Default : Yes
  43. Forced : No

  44. Text
  45. ID : 3
  46. Format : UTF-8
  47. Codec ID : S_TEXT/UTF8
  48. Codec ID/Info : UTF-8 Plain Text
  49. Duration : 1 h 17 min
  50. Bit rate : 34 b/s
  51. Count of elements : 812
  52. Stream size : 19.4 KiB (0%)
  53. Title : (SDH)
  54. Language : English
  55. Default : No
  56. Forced : No
复制代码

夏日滋味/恋恋初夏4k.My.First.Summer.2020.2160p.WEB-DL.x265.8bit.SDR.DDP5.1-4K电影下载

恋恋初夏4k.My.First.Summer.2020.2160p.WEB-DL.x265.8bit.SDR.DDP5.1-【4K SDR 8.29 GB】
[Hao4K]恋恋初夏4K.My.First.Summer.2020.2160p.WEB-DL.x265.8bit.SDR.DDP5.1-ROCCaT.torrent (42 KB)
回复

使用道具 举报

全部回复16

mouseking007 发表于 2021-3-31 20:10:55

mouseking007 沙发

2021-3-31 20:10:55

谢谢分享!
回复 支持 反对

使用道具 举报

dragon_walk 发表于 2021-3-31 21:49:46

dragon_walk 板凳

2021-3-31 21:49:46

估计是女同的片
回复 支持 反对

使用道具 举报

yale 发表于 2021-3-31 22:31:10

yale 地板

2021-3-31 22:31:10

谢谢分享
回复 支持 反对

使用道具 举报

轻度眼盲 发表于 2021-3-31 23:37:09

轻度眼盲 5#

2021-3-31 23:37:09

没字幕好难受
回复 支持 反对

使用道具 举报

dyczw 发表于 2021-4-1 06:46:55

dyczw 6#

2021-4-1 06:46:55

感谢分享,辛苦了
回复 支持 反对

使用道具 举报

xxw8888 发表于 2021-4-1 10:08:36

xxw8888 7#

2021-4-1 10:08:36

感謝分享
回复 支持 反对

使用道具 举报

忙碌的蚂蚁 发表于 2021-4-1 11:01:07

忙碌的蚂蚁 8#

2021-4-1 11:01:07

感谢分享!
回复 支持 反对

使用道具 举报

andywjhh 发表于 2021-4-1 11:13:52

andywjhh 9#

2021-4-1 11:13:52

好资源很给力
回复 支持 反对

使用道具 举报

yaoshenjiang 发表于 2021-4-1 22:44:00 Hao4K手机版

yaoshenjiang 10#

2021-4-1 22:44:00

谢谢分享
回复 支持 反对

使用道具 举报

jingyun1978 发表于 2021-4-2 00:18:27

jingyun1978 11#

2021-4-2 00:18:27

谢谢分享好片!!!
回复 支持 反对

使用道具 举报

xynn1222 发表于 2021-4-3 17:12:53

xynn1222 12#

2021-4-3 17:12:53

加油,多谢分享
回复 支持 反对

使用道具 举报

caohenghu 发表于 2021-4-4 11:58:53

caohenghu 13#

2021-4-4 11:58:53

感谢楼主
回复 支持 反对

使用道具 举报

star5773 发表于 2021-4-6 08:06:34

star5773 14#

2021-4-6 08:06:34


看了没,是不是
回复 支持 反对

使用道具 举报

世爵39 发表于 2021-4-7 08:14:19

世爵39 15#

2021-4-7 08:14:19

没字幕好难受
回复 支持 反对

使用道具 举报

zzksjx 发表于 2021-4-7 16:59:56 Hao4K手机版

zzksjx 16#

2021-4-7 16:59:56

谢谢分享,不赖
回复 支持 反对

使用道具 举报

lifeimax 发表于 5 天前

lifeimax 17#

5 天前

谢谢分享
回复 支持 反对

使用道具 举报

   发表回复

您需要登录后才可以回帖 登录 | 立即注册

返回列表 本版积分规则

  • 在线客服

  • 返回顶部