微博 微信

Hao4K影音

电影频道
电影封面:
片  名: 圣诞星4K
电影分类: 冒险 喜剧 动画 
国  家: 美国 
年  代: 2017年
分 辨 率: 4K(3840x2160)
电影格式: MKV|REMUX 
画质标准: HDR10 
音质编码: Dolby Digital Plus Audio 
电影声道: 5.1声道 
帧数/FPS: 23.976 帧
电影语言: 英文原版 
资源大小: 10.77 GB
导  演: 蒂莫西·锐科特
豆瓣评分: 6.4 分
中文字幕: /thread-55844-1-1.html
剧情简介: “The Star”只是个工作代号,并不是这部影片的正式片名。该片原名《羔羊》(The Lamb),由奥斯卡提名动画短片《头朝下的生活》(Head Over Heels)导演蒂莫西·雷克阿特(Timothy Reckart)执导,以一头勇敢的小驴子和他的动物伙伴为主角,从他们的角度描述了耶稣降生的故事。以布偶电影而著称的吉姆·汉森公司(The Jim Henson Company)将和索尼动画一起制作本片。
羔羊 / The Lamb/圣诞星4K.The.Star.2017.2160p.AMZN.WEB-DL.x265.10bit.HDR10Plus.DTS-HD.MA.5.1-4k电影信息
  1. Video
  2. ID : 1
  3. Format : HEVC
  4. Format/Info : High Efficiency Video Coding
  5. Format profile : Main 10@L5@Main
  6. HDR format : SMPTE ST 2094 App 4, Version 1, HDR10+ Profile B compatible
  7. Codec ID : V_MPEGH/ISO/HEVC
  8. Duration : 1 h 26 min
  9. Bit rate : 14.9 Mb/s
  10. Width : 3 840 pixels
  11. Height : 2 080 pixels
  12. Display aspect ratio : 1.85:1
  13. Frame rate mode : Constant
  14. Frame rate : 23.976 (24000/1001) FPS
  15. Color space : YUV
  16. Chroma subsampling : 4:2:0
  17. Bit depth : 10 bits
  18. Bits/(Pixel*Frame) : 0.078
  19. Stream size : 8.97 GiB (83%)
  20. Default : Yes
  21. Forced : No
  22. Color range : Limited
  23. Color primaries : BT.2020
  24. Transfer characteristics : PQ
  25. Matrix coefficients : BT.2020 non-constant
  26. Mastering display color primaries : Display P3
  27. Mastering display luminance : min: 0.0050 cd/m2, max: 4000 cd/m2
  28. Maximum Content Light Level : 4000 cd/m2
  29. Maximum Frame-Average Light Level : 870 cd/m2

  30. Audio #1
  31. ID : 2
  32. Format : DTS XLL
  33. Format/Info : Digital Theater Systems
  34. Commercial name : DTS-HD Master Audio
  35. Codec ID : A_DTS
  36. Duration : 1 h 26 min
  37. Bit rate mode : Variable
  38. Bit rate : 2 229 kb/s
  39. Channel(s) : 6 channels
  40. Channel layout : C L R Ls Rs LFE
  41. Sampling rate : 48.0 kHz
  42. Frame rate : 93.750 FPS (512 SPF)
  43. Bit depth : 16 bits
  44. Compression mode : Lossless
  45. Stream size : 1.34 GiB (12%)
  46. Title : DTS-HD MA 5.1
  47. Language : English
  48. Default : Yes
  49. Forced : No

  50. Audio #2
  51. ID : 3
  52. Format : AC-3
  53. Format/Info : Audio Coding 3
  54. Commercial name : Dolby Digital
  55. Codec ID : A_AC3
  56. Duration : 1 h 26 min
  57. Bit rate mode : Constant
  58. Bit rate : 640 kb/s
  59. Channel(s) : 6 channels
  60. Channel layout : L R C LFE Ls Rs
  61. Sampling rate : 48.0 kHz
  62. Frame rate : 31.250 FPS (1536 SPF)
  63. Compression mode : Lossy
  64. Stream size : 394 MiB (4%)
  65. Title : DD 5.1
  66. Language : English
  67. Service kind : Complete Main
  68. Default : No
  69. Forced : No

  70. Text #1
  71. ID : 4
  72. Format : UTF-8
  73. Codec ID : S_TEXT/UTF8
  74. Codec ID/Info : UTF-8 Plain Text
  75. Duration : 1 h 23 min
  76. Bit rate : 70 b/s
  77. Count of elements : 1425
  78. Stream size : 43.3 KiB (0%)
  79. Title : SRT
  80. Language : English
  81. Default : Yes
  82. Forced : No

  83. Text #2
  84. ID : 5
  85. Format : PGS
  86. Muxing mode : zlib
  87. Codec ID : S_HDMV/PGS
  88. Codec ID/Info : Picture based subtitle format used on BDs/HD-DVDs
  89. Duration : 1 h 18 min
  90. Bit rate : 51.2 kb/s
  91. Count of elements : 2570
  92. Stream size : 28.8 MiB (0%)
  93. Language : English
  94. Default : No
  95. Forced : No

  96. Text #3
  97. ID : 6
  98. Format : PGS
  99. Muxing mode : zlib
  100. Codec ID : S_HDMV/PGS
  101. Codec ID/Info : Picture based subtitle format used on BDs/HD-DVDs
  102. Duration : 1 h 24 min
  103. Bit rate : 60.5 kb/s
  104. Count of elements : 3286
  105. Stream size : 36.4 MiB (0%)
  106. Title : SDH
  107. Language : English
  108. Default : No
  109. Forced : No

  110. Text #4
  111. ID : 7
  112. Format : PGS
  113. Muxing mode : zlib
  114. Codec ID : S_HDMV/PGS
  115. Codec ID/Info : Picture based subtitle format used on BDs/HD-DVDs
  116. Duration : 1 h 26 min
  117. Bit rate : 36.9 kb/s
  118. Count of elements : 2244
  119. Stream size : 22.7 MiB (0%)
  120. Language : French
  121. Default : No
  122. Forced : No

  123. Text #5
  124. ID : 8
  125. Format : PGS
  126. Muxing mode : zlib
  127. Codec ID : S_HDMV/PGS
  128. Codec ID/Info : Picture based subtitle format used on BDs/HD-DVDs
  129. Duration : 1 h 26 min
  130. Bit rate : 43.7 kb/s
  131. Count of elements : 2302
  132. Stream size : 26.9 MiB (0%)
  133. Title : Latin American
  134. Language : Spanish
  135. Default : No
  136. Forced : No

  137. Text #6
  138. ID : 9
  139. Format : PGS
  140. Muxing mode : zlib
  141. Codec ID : S_HDMV/PGS
  142. Codec ID/Info : Picture based subtitle format used on BDs/HD-DVDs
  143. Duration : 1 h 24 min
  144. Bit rate : 84.2 kb/s
  145. Count of elements : 3566
  146. Stream size : 50.6 MiB (0%)
  147. Title : Commentary by director Timothy Reckart and executive producer DeVon Franlkin
  148. Language : English
  149. Default : No
  150. Forced : No

  151. Menu
  152. 00:00:00.000 : en:Chapter 1
  153. 00:04:20.385 : en:Chapter 2
  154. 00:08:07.112 : en:Chapter 3
  155. 00:13:11.290 : en:Chapter 4
  156. 00:18:07.753 : en:Chapter 5
  157. 00:21:29.246 : en:Chapter 6
  158. 00:25:59.224 : en:Chapter 7
  159. 00:30:26.825 : en:Chapter 8
  160. 00:34:41.997 : en:Chapter 9
  161. 00:39:09.722 : en:Chapter 10
  162. 00:47:09.910 : en:Chapter 11
  163. 00:52:29.772 : en:Chapter 12
  164. 00:57:39.414 : en:Chapter 13
  165. 01:04:37.874 : en:Chapter 14
  166. 01:09:35.171 : en:Chapter 15
  167. 01:13:40.875 : en:Chapter 16
复制代码

羔羊 / The Lamb/圣诞星4K.The.Star.2017.2160p.AMZN.WEB-DL.x265.10bit.HDR10Plus.DTS-HD.MA.5.1-4K电影下载

圣诞星4K.The.Star.2017.2160p.AMZN.WEB-DL.x265.10bit.HDR10Plus.DTS-HD.MA.5.1【4K HDR 10.77 GB】
[Hao4K]圣诞星4K.The.Star.2017.2160p.AMZN.WEB-DL.x265.10bit.HDR10Plus.DTS-HD.MA.5.torrent (54.44 KB)
回复

使用道具 举报

全部回复33

13143759029 发表于 2021-3-31 21:05:03

13143759029 沙发

2021-3-31 21:05:03

谢谢分享~~~~~~~~~
回复 支持 反对

使用道具 举报

dragon_walk 发表于 2021-3-31 21:48:26

dragon_walk 板凳

2021-3-31 21:48:26

多谢分享啊
回复 支持 反对

使用道具 举报

yale 发表于 2021-3-31 22:32:23

yale 地板

2021-3-31 22:32:23

谢谢分享
回复 支持 反对

使用道具 举报

dyczw 发表于 2021-4-1 06:46:09

dyczw 5#

2021-4-1 06:46:09

感谢分享,辛苦了!
回复 支持 反对

使用道具 举报

you395535668 发表于 2021-4-1 09:26:13

you395535668 6#

2021-4-1 09:26:13

这部还是挺好玩的 可以看看~ 谢谢分享~
回复 支持 反对

使用道具 举报

yangly 发表于 2021-4-1 09:59:20

yangly 7#

2021-4-1 09:59:20

谢谢楼主分享
回复 支持 反对

使用道具 举报

yangly 发表于 2021-4-1 09:59:33

yangly 8#

2021-4-1 09:59:33

感谢分享,辛苦了
回复 支持 反对

使用道具 举报

lzx6537227 发表于 2021-4-1 10:10:52

lzx6537227 9#

2021-4-1 10:10:52

谢谢您的无私分享!
回复 支持 反对

使用道具 举报

5555pmn 发表于 2021-4-1 10:58:09

5555pmn 10#

2021-4-1 10:58:09

这部还是挺好玩的 可以看看~ 谢谢分享~
回复 支持 反对

使用道具 举报

忙碌的蚂蚁 发表于 2021-4-1 11:03:04

忙碌的蚂蚁 11#

2021-4-1 11:03:04

感谢分享
回复 支持 反对

使用道具 举报

andywjhh 发表于 2021-4-1 11:07:26

andywjhh 12#

2021-4-1 11:07:26

好资源很给力
回复 支持 反对

使用道具 举报

bluestar 发表于 2021-4-1 11:29:15

bluestar 13#

2021-4-1 11:29:15

谢谢分享好电影
回复 支持 反对

使用道具 举报

xv6950 发表于 2021-4-1 12:31:29

xv6950 14#

2021-4-1 12:31:29

谢谢分享好电影
回复 支持 反对

使用道具 举报

老鼠响叮当燚燚 发表于 2021-4-1 15:18:54

老鼠响叮当燚燚 15#

2021-4-1 15:18:54

谢谢楼主发片分享
回复 支持 反对

使用道具 举报

dimzhang007 发表于 2021-4-1 20:11:13

dimzhang007 16#

2021-4-1 20:11:13

DDDDDDDDDDDDDDDDD
回复 支持 反对

使用道具 举报

shisa 发表于 2021-4-1 22:35:07

shisa 17#

2021-4-1 22:35:07


谢谢分享好电影
回复 支持 反对

使用道具 举报

08guochao 发表于 2021-4-2 01:14:20 Hao4K手机版

08guochao 18#

2021-4-2 01:14:20

国语电影怎么下载?
回复 支持 反对

使用道具 举报

   发表回复

您需要登录后才可以回帖 登录 | 立即注册

返回列表 本版积分规则

  • 在线客服

  • 返回顶部