微博 微信

Hao4K影音

电影频道
电影封面:
片  名: 单身指南4K
电影分类: 喜剧 爱情片 
国  家: 美国 
年  代: 2016年
分 辨 率: 4K(3840x2160)
电影格式: MKV|REMUX 
画质标准: HDR10 
音质编码: DTS-HD Master Audio 
电影声道: 5.1声道 
帧数/FPS: 23.976 帧
电影语言: 英文原版 
资源大小: 14.72 GB
导  演: 克利斯汀·迪特
豆瓣评分: 6.8 分
中文字幕: /thread-55878-1-1.html
剧情简介: 爱丽丝(达科塔·约翰逊 Dakota Johnson 饰)和男友之间的感情走到了尽头,为了给这段恋情寻找新的可能性,她决定暂时离开男友,离开家乡,前往纽约闯荡。罗宾(瑞贝尔·威尔森 Rebel Wilson 饰)的个性大大咧咧,白天,她是法律事务所里衣着得体的小助理,每当夜幕降临,她便会摇身一变,成为夜场里最闪亮的女王。
 梅格(莱斯利·曼恩 Leslie Mann 饰)早已经看穿了婚姻的本质,是一名不婚主义者,可是,一个属于她的孩子对于梅格来说却有着致命的吸引力。露西(爱丽森·布里 Alison Brie 饰)的社交圈很小,因此她将脱单的期望寄托在了虚拟的社交网络中,结果却屡屡令她失望。
单身又如何(港) / 单身啪啪啪(台)/单身指南4K.How.to.Be.Single.2016.2160p.AMZN.WEB-DL.x265.10bit.HDR10Plus.DTS-HD.MA.5.1-4k电影信息
  1. Video
  2. ID : 1
  3. Format : HEVC
  4. Format/Info : High Efficiency Video Coding
  5. Format profile : Main 10@L5@Main
  6. HDR format : SMPTE ST 2094 App 4, Version 1, HDR10+ Profile B compatible
  7. Codec ID : V_MPEGH/ISO/HEVC
  8. Duration : 1 h 49 min
  9. Bit rate : 14.9 Mb/s
  10. Width : 3 840 pixels
  11. Height : 1 600 pixels
  12. Display aspect ratio : 2.40:1
  13. Frame rate mode : Constant
  14. Frame rate : 23.976 (24000/1001) FPS
  15. Color space : YUV
  16. Chroma subsampling : 4:2:0
  17. Bit depth : 10 bits
  18. Bits/(Pixel*Frame) : 0.101
  19. Stream size : 11.4 GiB (77%)
  20. Default : Yes
  21. Forced : No
  22. Color range : Limited
  23. Color primaries : BT.2020
  24. Transfer characteristics : PQ
  25. Matrix coefficients : BT.2020 non-constant
  26. Mastering display color primaries : R: x=0.680000 y=0.320000, G: x=0.265000 y=0.690000, B: x=0.150000 y=0.060000, White point: x=0.313000 y=0.329000
  27. Mastering display luminance : min: 0.0050 cd/m2, max: 1000 cd/m2
  28. Maximum Content Light Level : 4000 cd/m2
  29. Maximum Frame-Average Light Level : 673 cd/m2

  30. Audio #1
  31. ID : 2
  32. Format : DTS XLL
  33. Format/Info : Digital Theater Systems
  34. Commercial name : DTS-HD Master Audio
  35. Codec ID : A_DTS
  36. Duration : 1 h 49 min
  37. Bit rate mode : Variable
  38. Bit rate : 3 682 kb/s
  39. Channel(s) : 6 channels
  40. Channel layout : C L R Ls Rs LFE
  41. Sampling rate : 48.0 kHz
  42. Frame rate : 93.750 FPS (512 SPF)
  43. Bit depth : 24 bits
  44. Compression mode : Lossless
  45. Delay relative to video : 5 ms
  46. Stream size : 2.82 GiB (19%)
  47. Title : DTS-HD MA 5.1
  48. Language : English
  49. Default : Yes
  50. Forced : No

  51. Audio #2
  52. ID : 3
  53. Format : AC-3
  54. Format/Info : Audio Coding 3
  55. Commercial name : Dolby Digital
  56. Codec ID : A_AC3
  57. Duration : 1 h 49 min
  58. Bit rate mode : Constant
  59. Bit rate : 640 kb/s
  60. Channel(s) : 6 channels
  61. Channel layout : L R C LFE Ls Rs
  62. Sampling rate : 48.0 kHz
  63. Frame rate : 31.250 FPS (1536 SPF)
  64. Compression mode : Lossy
  65. Stream size : 503 MiB (3%)
  66. Title : DD 5.1
  67. Language : English
  68. Service kind : Complete Main
  69. Default : No
  70. Forced : No

  71. Text
  72. ID : 4
  73. Format : UTF-8
  74. Codec ID : S_TEXT/UTF8
  75. Codec ID/Info : UTF-8 Plain Text
  76. Duration : 1 h 42 min
  77. Bit rate : 81 b/s
  78. Count of elements : 1939
  79. Stream size : 61.0 KiB (0%)
  80. Title : English-SRT
  81. Language : English
  82. Default : Yes
  83. Forced : No

  84. Menu
  85. 00:00:00.000 : :Chapter 01
  86. 00:10:18.492 : :Chapter 02
  87. 00:20:34.775 : :Chapter 03
  88. 00:31:17.750 : :Chapter 04
  89. 00:41:28.194 : :Chapter 05
  90. 00:52:06.832 : :Chapter 06
  91. 01:03:33.559 : :Chapter 07
  92. 01:16:21.159 : :Chapter 08
  93. 01:24:43.036 : :Chapter 09
  94. 01:32:11.817 : :Chapter 10
  95. 01:43:26.825 : :Chapter 11
复制代码

单身又如何(港) / 单身啪啪啪(台)/单身指南4K.How.to.Be.Single.2016.2160p.AMZN.WEB-DL.x265.10bit.HDR10Plus.DTS-HD.MA.5.1-4K电影下载

单身指南4K.How.to.Be.Single.2016.2160p.AMZN.WEB-DL.x265.10bit.HDR10Plus.DTS-HD.MA.5.1【4K HDR 14.72GB】
[Hao4K]单身指南4K.How.to.Be.Single.2016.2160p.AMZN.WEB-DL.x265.10bit.HDR10Plus.D.torrent (74.22 KB, 售价: 2 K币)
回复

使用道具 举报

全部回复20

dragon_walk 发表于 2021-3-31 21:47:43

dragon_walk 沙发

2021-3-31 21:47:43

多谢发片,片荒,有片就看
回复 支持 反对

使用道具 举报

yale 发表于 2021-3-31 22:32:55

yale 板凳

2021-3-31 22:32:55

谢谢分享
回复 支持 反对

使用道具 举报

ccllvye 发表于 2021-4-1 05:23:45

ccllvye 地板

2021-4-1 05:23:45


支持下楼主
回复 支持 反对

使用道具 举报

dyczw 发表于 2021-4-1 06:45:56

dyczw 5#

2021-4-1 06:45:56

感谢分享,辛苦了
回复 支持 反对

使用道具 举报

福星高高照 发表于 2021-4-1 08:31:16

福星高高照 6#

2021-4-1 08:31:16

一部有趣的电影
回复 支持 反对

使用道具 举报

Makoto8023 发表于 2021-4-1 08:36:43

Makoto8023 7#

2021-4-1 08:36:43

谢谢分享
回复 支持 反对

使用道具 举报

dlding 发表于 2021-4-1 09:22:57

dlding 8#

2021-4-1 09:22:57

感谢分享,辛苦了
回复 支持 反对

使用道具 举报

jimmylonely 发表于 2021-4-1 10:15:44

jimmylonely 9#

2021-4-1 10:15:44

谢谢分享
回复 支持 反对

使用道具 举报

忙碌的蚂蚁 发表于 2021-4-1 11:02:16

忙碌的蚂蚁 10#

2021-4-1 11:02:16

感谢分享!
回复 支持 反对

使用道具 举报

andywjhh 发表于 2021-4-1 14:15:20

andywjhh 11#

2021-4-1 14:15:20

好资源很给力
回复 支持 反对

使用道具 举报

panbell 发表于 2021-4-1 17:07:17

panbell 12#

2021-4-1 17:07:17

谢谢楼主的无私分享!
回复 支持 反对

使用道具 举报

17675784670 发表于 2021-4-2 01:03:10

17675784670 13#

2021-4-2 01:03:10

谢谢,很有趣
回复 支持 反对

使用道具 举报

cb917918 发表于 2021-4-2 15:53:19

cb917918 14#

2021-4-2 15:53:19


感谢分享,辛苦了
回复 支持 反对

使用道具 举报

caohenghu 发表于 2021-4-4 11:58:17

caohenghu 15#

2021-4-4 11:58:17

感谢楼主
回复 支持 反对

使用道具 举报

pnwzh 发表于 2021-4-4 15:52:08

pnwzh 16#

2021-4-4 15:52:08



感谢分享,辛苦了
回复 支持 反对

使用道具 举报

d370216774 发表于 2021-4-5 15:25:50

d370216774 17#

2021-4-5 15:25:50

感谢分享 辛苦 辛苦!
回复 支持 反对

使用道具 举报

gravityboy 发表于 2021-4-8 18:49:35

gravityboy 18#

2021-4-8 18:49:35

厉害啦!
回复 支持 反对

使用道具 举报

   发表回复

您需要登录后才可以回帖 登录 | 立即注册

返回列表 本版积分规则

  • 在线客服

  • 返回顶部