微博 微信

Hao4K影音

电影频道
电影封面:
片  名: 虎胆龙威2
电影分类: 动作 犯罪 惊悚 
国  家: 美国 
年  代: 90年代
分 辨 率: 4K(3840x2160)
电影格式: MKV|REMUX 
画质标准: HDR10 
音质编码: DTS-HD Master Audio 
电影声道: 5.1声道 
帧数/FPS: 23.976 帧
电影语言: 英文原版 
资源大小: 15.20 GB
导  演: 雷尼·哈林
豆瓣评分: 7.8 分
中文字幕: /thread-55870-1-1.html
剧情简介: 圣诞前夕,麦卡伦(布鲁斯•威利斯 饰)正在华盛顿的机场等待妻子霍莉(邦尼•彼地丽娅 饰)乘飞机归来过节。然而无意中他却发现了一个重大的阴谋:被议会解职的特种部队施上校正率领部下准备解救被引渡的中美洲毒枭艾将军。
  麦卡伦将此事告知了机场警卫队的罗队长,但后者的官僚作风和愚蠢却使这一切未能得到阻止。施上校带领部下占领了机场附近的一座小教堂,设置了一个飞行控制中心,并切断了机场控制塔与空中的一切联系,使众多的客机无法降落。而麦卡伦的妻子霍莉此时却正在其中的一架飞机上。
  为了解救妻子和在空中的众多客机,麦卡伦不得不再次进行艰苦的努力
终极警探2(台) / 终极警探续集 / Die Hard 2: Die Harder / 58 minutes pour vivre/ 虎胆龙威2 4K.Die.Hard.2.1990.2160p.AMZN.WEB-DL.x265.10bit.HDR10Plus.DTS-HD.MA.5.1-4k电影信息
  1. Video
  2. ID : 1
  3. Format : HEVC
  4. Format/Info : High Efficiency Video Coding
  5. Format profile : Main 10@L5@Main
  6. HDR format : SMPTE ST 2094 App 4, Version 1, HDR10+ Profile B compatible
  7. Codec ID : V_MPEGH/ISO/HEVC
  8. Duration : 2 h 3 min
  9. Bit rate : 14.7 Mb/s
  10. Width : 3 840 pixels
  11. Height : 1 600 pixels
  12. Display aspect ratio : 2.40:1
  13. Frame rate mode : Constant
  14. Frame rate : 23.976 (24000/1001) FPS
  15. Color space : YUV
  16. Chroma subsampling : 4:2:0
  17. Bit depth : 10 bits
  18. Bits/(Pixel*Frame) : 0.100
  19. Stream size : 12.7 GiB (83%)
  20. Default : Yes
  21. Forced : No
  22. Color range : Limited
  23. Color primaries : BT.2020
  24. Transfer characteristics : PQ
  25. Matrix coefficients : BT.2020 non-constant
  26. Mastering display color primaries : Display P3
  27. Mastering display luminance : min: 0.0050 cd/m2, max: 1000 cd/m2

  28. Audio #1
  29. ID : 2
  30. Format : DTS XLL
  31. Format/Info : Digital Theater Systems
  32. Commercial name : DTS-HD Master Audio
  33. Codec ID : A_DTS
  34. Duration : 2 h 3 min
  35. Bit rate mode : Variable
  36. Bit rate : 2 271 kb/s
  37. Channel(s) : 6 channels
  38. Channel layout : C L R Ls Rs LFE
  39. Sampling rate : 48.0 kHz
  40. Frame rate : 93.750 FPS (512 SPF)
  41. Bit depth : 24 bits
  42. Compression mode : Lossless
  43. Delay relative to video : 122 ms
  44. Stream size : 1.96 GiB (13%)
  45. Title : DTS-HD MA 5.1
  46. Language : English
  47. Default : Yes
  48. Forced : No

  49. Audio #2
  50. ID : 3
  51. Format : AC-3
  52. Format/Info : Audio Coding 3
  53. Commercial name : Dolby Digital
  54. Codec ID : A_AC3
  55. Duration : 2 h 3 min
  56. Bit rate mode : Constant
  57. Bit rate : 640 kb/s
  58. Channel(s) : 6 channels
  59. Channel layout : L R C LFE Ls Rs
  60. Sampling rate : 48.0 kHz
  61. Frame rate : 31.250 FPS (1536 SPF)
  62. Compression mode : Lossy
  63. Stream size : 565 MiB (4%)
  64. Title : DD 5.1
  65. Language : English
  66. Service kind : Complete Main
  67. Default : No
  68. Forced : No

  69. Text
  70. ID : 4
  71. Format : UTF-8
  72. Codec ID : S_TEXT/UTF8
  73. Codec ID/Info : UTF-8 Plain Text
  74. Duration : 1 h 55 min
  75. Bit rate : 66 b/s
  76. Count of elements : 1361
  77. Stream size : 56.4 KiB (0%)
  78. Title : English-SRT
  79. Language : English
  80. Default : Yes
  81. Forced : No

  82. Menu
  83. 00:00:00.000 : en:Studio Logo
  84. 00:00:28.000 : en:McClane Tries to Talk His Way Out of a Towing
  85. 00:01:49.000 : en:McClane Enters the Airport as Col. Stuart Prepares
  86. 00:03:30.000 : en:Holly Talks with John from the Plane
  87. 00:06:12.000 : en:The Church Custodian Gets an Unexpected Visit
  88. 00:08:13.000 : en:The Terrorists Prepare while McClane Lurks
  89. 00:12:14.000 : en:McClane Investigates
  90. 00:16:19.000 : en:Thornburg Complains about His Seat
  91. 00:17:57.000 : en:John Gets His Piece and Shield Back
  92. 00:18:32.000 : en:Miller Reports Back to Stuart
  93. 00:19:30.000 : en:John Argues with Lorenzo about the Crime Scene
  94. 00:22:30.000 : en:John Gets an Idea
  95. 00:23:20.000 : en:Gen. Esperanza Needs His Chains Loosened
  96. 00:25:08.000 : en:John Gives Al a Call
  97. 00:27:01.000 : en:The Weather Grows Inclement
  98. 00:28:15.000 : en:Al Reports His Findings
  99. 00:29:46.000 : en:McClane Shows Trudeau and Lorenzo the Terrorist\'s Dossier
  100. 00:30:54.000 : en:Stuff Starts Going Down
  101. 00:33:20.000 : en:Trudeau Receives a Call
  102. 00:36:33.000 : en:McClane Is Thrown Out
  103. 00:38:21.000 : en:McClane\'s Up to His Old Antics
  104. 00:39:31.000 : en:McClane Meets Marvin
  105. 00:40:56.000 : en:Trudeau Relays a Message to the Pilots
  106. 00:41:53.000 : en:Leslie and McClane Head for the Skywalk
  107. 00:43:35.000 : en:McClane Hates It When He\'s Right
  108. 00:48:56.000 : en:Thornburg Notices Something\'s Amiss
  109. 00:49:55.000 : en:Leslie Tells McClane that the Walkie Talkies Are Encrypted
  110. 00:50:56.000 : en:Stuart Has a Sinister Plan in the Works
  111. 00:54:17.000 : en:Windsor Flight Is Cleared for Landing
  112. 00:58:27.000 : en:Things Are Looking Bleak
  113. 01:00:43.000 : en:Thornburg Hatches a Plan
  114. 01:02:38.000 : en:The Blue Light Team Arrives
  115. 01:04:19.000 : en:Leslie Devises a Method of Communication with the Planes
  116. 01:05:10.000 : en:McClane Tries to Help Out
  117. 01:06:06.000 : en:The Outer Beacon Starts Talking
  118. 01:07:33.000 : en:McClane Revisits Marvin for Assistance
  119. 01:09:34.000 : en:Esperanza Urges the Pilots to Land the Plane
  120. 01:12:05.000 : en:Terrorists Assist the General in Landing His Plane
  121. 01:13:08.000 : en:McClane Makes His Way to the General\'s Airstrip
  122. 01:15:26.000 : en:The General Has Landed
  123. 01:19:12.000 : en:Thornburg Makes a Call to the Station
  124. 01:20:56.000 : en:Barnes Makes a Discovery
  125. 01:22:32.000 : en:Holly Wonders How Long the Plane Can Keep Circling
  126. 01:23:25.000 : en:McClane and Leslie Head for the Church
  127. 01:25:27.000 : en:The Blue Light Team Moves Out
  128. 01:26:55.000 : en:Maj. Grant Takes Control
  129. 01:29:19.000 : en:The Terrorists Pull Out
  130. 01:30:52.000 : en:McClane Pursues the Remaining Terrorists
  131. 01:33:15.000 : en:Stuart Confirms His Plane\'s Location
  132. 01:34:21.000 : en:Thornburg Reaches WZDC
  133. 01:36:10.000 : en:McClane Gets Through to Lorenzo
  134. 01:39:08.000 : en:Holly Puts a Cork on Things
  135. 01:41:07.000 : en:The Terrorists Prepare to Depart
  136. 01:42:29.000 : en:Trouble in the Air
  137. 01:44:51.000 : en:McClane Crams a Jacket in the Aileron
  138. 01:47:49.000 : en:McClane Engages in Fisticuffs with Stuart
  139. 01:51:09.000 : en:The Planes Begin to Land
  140. 01:53:24.000 : en:John Is Reunited with Holly
  141. 01:56:24.000 : en:End Credits
复制代码


终极警探2(台) / 终极警探续集 / Die Hard 2: Die Harder / 58 minutes pour vivre/ 虎胆龙威2 4K.Die.Hard.2.1990.2160p.AMZN.WEB-DL.x265.10bit.HDR10Plus.DTS-HD.MA.5.1-4K电影下载

虎胆龙威2 4K.Die.Hard.2.1990.2160p.AMZN.WEB-DL.x265.10bit.HDR10Plus.DTS-HD.MA.5.1【4K HDR 15.20 GB】
[Hao4K]虎胆龙威2 4K.Die.Hard.2.1990.2160p.AMZN.WEB-DL.x265.10bit.HDR10Plus.DTS-H.torrent (76.57 KB, 售价: 2 K币)
回复

使用道具 举报

   发表回复

您需要登录后才可以回帖 登录 | 立即注册

返回列表 本版积分规则

  • 在线客服

  • 返回顶部