微博 微信

Hao4K影音

电影频道
电影封面:
片  名: 混沌行走4K
电影分类: 动作 科幻 冒险 
国  家: 美国 
年  代: 2021年
分 辨 率: 4K(3840x2160)
电影格式: MKV|REMUX 
画质标准: HDR10 
音质编码: Dolby Digital Plus Audio 
电影声道: 5.1声道 
帧数/FPS: 23.976 帧
电影语言: 英文原版 
资源大小: 11.60 GB
导  演: 道格·里曼
豆瓣评分: 5.7 分
中文字幕: /thread-55908-1-1.html
剧情简介: 人类在与地球相似的遥远外星建立了新家园,但这个星球上却有一种病毒,男人感染后可以听到其他人和动物的心声,每个男人脑子里的想法都能被他人听到,人与人之间不存在隐私,新星球上的普伦提司镇的男人们就不堪忍受自己的想法被人听见。
  托德·赫维特(汤姆·赫兰德 饰)是出生于这座小镇的 男孩,他的认知中小镇没有女人是因为该星球土著居民蓝光兽家园被人类侵犯时故意让人类感染了噪音病毒,他们还杀光了所有女性。托德对此深信不疑,直到他遇到一个女孩。
  托德在小镇附近的森林里遇到了一个叫维奥拉(黛西·雷德利 饰)的女孩,她来自遥远的地球,她的飞船因故坠毁在森林里,普伦提司镇的镇长在得知这个消息后立刻展开对他俩的追杀,托德为了保护女孩维奥拉只好一起出逃,开始了一段他意想不到且危机重重的星球冒险。
混沌漫步 / 噪反(台) / 读心叛变(港)/混沌行走4K.Chaos.Walking.2021.2160p.AMZN.WEB-DL.x265.10bit.HDR10Plus.DDP5.1-4k电影信息
  1. Video
  2. ID : 1
  3. Format : HEVC
  4. Format/Info : High Efficiency Video Coding
  5. Format profile : Main 10@L5@Main
  6. HDR format : SMPTE ST 2094 App 4, Version 1, HDR10+ Profile B compatible
  7. Codec ID : V_MPEGH/ISO/HEVC
  8. Duration : 1 h 48 min
  9. Bit rate : 14.6 Mb/s
  10. Width : 3 840 pixels
  11. Height : 1 600 pixels
  12. Display aspect ratio : 2.40:1
  13. Frame rate mode : Constant
  14. Frame rate : 23.976 (24000/1001) FPS
  15. Color space : YUV
  16. Chroma subsampling : 4:2:0
  17. Bit depth : 10 bits
  18. Bits/(Pixel*Frame) : 0.099
  19. Stream size : 11.1 GiB (96%)
  20. Default : Yes
  21. Forced : No
  22. Color range : Limited
  23. Color primaries : BT.2020
  24. Transfer characteristics : PQ
  25. Matrix coefficients : BT.2020 non-constant
  26. Mastering display color primaries : Display P3
  27. Mastering display luminance : min: 0.0050 cd/m2, max: 1000 cd/m2
  28. Maximum Content Light Level : 1000 cd/m2
  29. Maximum Frame-Average Light Level : 368 cd/m2

  30. Audio
  31. ID : 2
  32. Format : E-AC-3
  33. Format/Info : Enhanced AC-3
  34. Commercial name : Dolby Digital Plus
  35. Codec ID : A_EAC3
  36. Duration : 1 h 48 min
  37. Bit rate mode : Constant
  38. Bit rate : 640 kb/s
  39. Channel(s) : 6 channels
  40. Channel layout : L R C LFE Ls Rs
  41. Sampling rate : 48.0 kHz
  42. Frame rate : 31.250 FPS (1536 SPF)
  43. Compression mode : Lossy
  44. Stream size : 498 MiB (4%)
  45. Title : English
  46. Language : English
  47. Service kind : Complete Main
  48. Default : No
  49. Forced : No

  50. Text #1
  51. ID : 3
  52. Format : UTF-8
  53. Codec ID : S_TEXT/UTF8
  54. Codec ID/Info : UTF-8 Plain Text
  55. Duration : 1 h 38 min
  56. Bit rate : 64 b/s
  57. Count of elements : 1784
  58. Stream size : 46.3 KiB (0%)
  59. Title : English [SDH]
  60. Language : English
  61. Default : No
  62. Forced : No

  63. Text #2
  64. ID : 4
  65. Format : UTF-8
  66. Codec ID : S_TEXT/UTF8
  67. Codec ID/Info : UTF-8 Plain Text
  68. Duration : 1 h 37 min
  69. Bit rate : 56 b/s
  70. Count of elements : 1504
  71. Stream size : 40.6 KiB (0%)
  72. Title : English
  73. Language : English
  74. Default : No
  75. Forced : No
复制代码

混沌漫步 / 噪反(台) / 读心叛变(港)/混沌行走4K.Chaos.Walking.2021.2160p.AMZN.WEB-DL.x265.10bit.HDR10Plus.DDP5.1-4K电影

资源停止下载

混沌行走4K电影中文字幕下载 感谢K友岡坂日川分享的字幕
https://www.hao4k.cn/thread-55908-1-1.html
回复

使用道具 举报

全部回复75

kick068 发表于 2021-4-3 16:46:06

kick068 沙发

2021-4-3 16:46:06

好快的资源~
回复 支持 反对

使用道具 举报

jamesleo 发表于 2021-4-3 17:09:31

jamesleo 板凳

2021-4-3 17:09:31

好资源很给力
回复 支持 反对

使用道具 举报

d370216774 发表于 2021-4-3 18:46:05

d370216774 地板

2021-4-3 18:46:05

科幻最爱 感谢分享
回复 支持 反对

使用道具 举报

嗨嗨嗨 发表于 2021-4-3 20:08:54

嗨嗨嗨 5#

2021-4-3 20:08:54

感谢 楼主的分享
回复 支持 反对

使用道具 举报

672960135 发表于 2021-4-3 20:38:35

672960135 6#

2021-4-3 20:38:35

留名,等更清晰的版本
回复 支持 反对

使用道具 举报

世爵39 发表于 2021-4-3 20:45:04

世爵39 7#

2021-4-3 20:45:04


新片有看过的吗???
回复 支持 反对

使用道具 举报

世爵39 发表于 2021-4-3 20:45:49

世爵39 8#

2021-4-3 20:45:49

题材有创意
回复 支持 反对

使用道具 举报

世爵39 发表于 2021-4-3 21:07:06

世爵39 9#

2021-4-3 21:07:06

好资源很给力
回复 支持 反对

使用道具 举报

aa8298731 发表于 2021-4-3 21:10:54

aa8298731 10#

2021-4-3 21:10:54

又是一个喜欢冷色调和艳过头色彩的人儿
回复 支持 反对

使用道具 举报

caraler 发表于 2021-4-3 22:03:38

caraler 11#

2021-4-3 22:03:38

好看吗?
回复 支持 反对

使用道具 举报

caraler 发表于 2021-4-3 22:04:32

caraler 12#

2021-4-3 22:04:32

想看一下
回复 支持 反对

使用道具 举报

lygzqy 发表于 2021-4-3 22:44:02

lygzqy 13#

2021-4-3 22:44:02

谢谢楼主上传好资源!感激!
回复 支持 反对

使用道具 举报

SOS1994 发表于 2021-4-3 22:52:43 Hao4K手机版

SOS1994 14#

2021-4-3 22:52:43

楼主好人一生平安
回复 支持 反对

使用道具 举报

372847041 发表于 2021-4-3 23:53:59

372847041 15#

2021-4-3 23:53:59

有推荐的下载工具么
回复 支持 反对

使用道具 举报

Philip123 发表于 2021-4-4 00:18:31

Philip123 16#

2021-4-4 00:18:31

很喜欢这部影片,谢谢!
回复 支持 反对

使用道具 举报

panbell 发表于 2021-4-4 11:42:13

panbell 17#

2021-4-4 11:42:13

谢谢楼主的分享
回复 支持 反对

使用道具 举报

terryone 发表于 2021-4-4 12:00:18

terryone 18#

2021-4-4 12:00:18

资源不错,相当给力!!!
回复 支持 反对

使用道具 举报

   发表回复

您需要登录后才可以回帖 登录 | 立即注册

返回列表 本版积分规则

  • 在线客服

  • 返回顶部