微博 微信

Hao4K影音

电影频道
电影封面:
片  名: 异见者4K
电影分类: 犯罪 惊悚 纪录片 
国  家: 美国 
年  代: 2020年
分 辨 率: 4K(3840x2160)
电影格式: MKV|REMUX 
画质标准: SDR 
音质编码: Dolby Digital Plus Audio 
电影声道: 5.1声道 
帧数/FPS: 23.976 帧
电影语言: 英文原版 
资源大小: 8.91 GB
导  演: 布莱恩·佛格尔
豆瓣评分: 7.6 分
中文字幕: -
剧情简介: 故事聚焦2018年在伊斯坦布尔被残忍谋杀的《华盛顿邮报》记者Jamal Khashoggi。多项证据表明他极有可能是被沙特高层下达了刺杀令。
异见者4K.The.Dissident.2020.2160p.WEB-DL.x265.8bit.SDR.DDP5.1-4k电影信息
  1. Video
  2. ID : 1
  3. Format : HEVC
  4. Format/Info : High Efficiency Video Coding
  5. Format profile : Main@L5@Main
  6. Codec ID : V_MPEGH/ISO/HEVC
  7. Duration : 1 h 57 min
  8. Bit rate : 10.2 Mb/s
  9. Width : 3 840 pixels
  10. Height : 2 160 pixels
  11. Display aspect ratio : 16:9
  12. Frame rate mode : Constant
  13. Frame rate : 23.976 (24000/1001) FPS
  14. Standard : NTSC
  15. Color space : YUV
  16. Chroma subsampling : 4:2:0
  17. Bit depth : 8 bits
  18. Bits/(Pixel*Frame) : 0.052
  19. Stream size : 8.38 GiB (94%)
  20. Writing library : x265 2.9_elemental+1-9e0607aa5b6f:[Linux][GCC 4.8.5][64 bit] 8bit+10bit+12bit
  21. Encoding settings : cpuid=1111039 / frame-threads=2 / wpp / no-pmode / no-pme / psnr / ssim / log-level=2 / csv / csv-log-level=2 / input-csp=1 / input-res=3840x2160 / interlace=0 / total-frames=0 / level-idc=50 / high-tier=1 / uhd-bd=0 / ref=5 / no-allow-non-conformance / no-repeat-headers / annexb / no-aud / no-hrd / info / hash=0 / no-temporal-layers / no-open-gop / min-keyint=61 / keyint=120 / gop-lookahead=0 / bframes=8 / b-adapt=2 / b-pyramid / bframe-bias=0 / rc-lookahead=120 / lookahead-slices=4 / scenecut=0 / radl=0 / no-intra-refresh / ctu=64 / min-cu-size=8 / rect / amp / max-tu-size=32 / tu-inter-depth=4 / tu-intra-depth=4 / limit-tu=4 / rdoq-level=2 / dynamic-rd=0.00 / no-ssim-rd / signhide / tskip / nr-intra=100 / nr-inter=600 / no-constrained-intra / strong-intra-smoothing / max-merge=3 / limit-refs=3 / limit-modes / me=3 / subme=3 / merange=57 / temporal-mvp / weightp / weightb / no-analyze-src-pics / deblock=0:0 / no-sao / no-sao-non-deblock / rd=4 / no-early-skip / no-rskip / no-fast-intra / tskip-fast / no-cu-lossless / b-intra / no-splitrd-skip / rdpenalty=0 / psy-rd=4.00 / psy-rdoq=10.00 / no-rd-refine / no-lossless / cbqpoffs=0 / crqpoffs=0 / rc=crf / crf=25.0 / qcomp=0.60 / qpstep=1 / stats-write=0 / stats-read=0 / vbv-maxrate=15000 / vbv-bufsize=20000 / vbv-init=0.9 / crf-max=0.0 / crf-min=0.0 / ipratio=1.10 / pbratio=1.00 / aq-mode=0 / aq-strength=1.50 / no-cutree / zone-count=0 / no-strict-cbr / qg-size=32 / rc-grain / qpmax=69 / qpmin=0 / const-vbv / sar=1 / overscan=0 / videoformat=2 / range=0 / colorprim=1 / transfer=1 / colormatrix=1 / chromaloc=0 / display-window=0 / max-cll=0,0 / min-luma=0 / max-luma=255 / log2-max-poc-lsb=8 / vui-timing-info / vui-hrd-info / slices=1 / opt-qp-pps / no-opt-ref-list-length-pps / no-multi-pass-opt-rps / scenecut-bias=0.05 / no-opt-cu-delta-qp / no-aq-motion / no-hdr / no-hdr-opt / no-dhdr10-opt / no-idr-recovery-sei / analysis-reuse-level=5 / scale-factor=0 / refine-intra=0 / refine-inter=0 / refine-mv=0 / no-limit-sao / ctu-info=0 / no-lowpass-dct / refine-mv-type=0 / copy-pic=1 / max-ausize-factor=1.0 / no-dynamic-refine / no-single-sei
  22. Default : Yes
  23. Forced : No
  24. Color range : Limited
  25. Color primaries : BT.709
  26. Transfer characteristics : BT.709
  27. Matrix coefficients : BT.709

  28. Audio
  29. ID : 2
  30. Format : E-AC-3
  31. Format/Info : Enhanced AC-3
  32. Commercial name : Dolby Digital Plus
  33. Codec ID : A_EAC3
  34. Duration : 1 h 57 min
  35. Bit rate mode : Constant
  36. Bit rate : 640 kb/s
  37. Channel(s) : 6 channels
  38. Channel layout : L R C LFE Ls Rs
  39. Sampling rate : 48.0 kHz
  40. Frame rate : 31.250 FPS (1536 SPF)
  41. Compression mode : Lossy
  42. Stream size : 536 MiB (6%)
  43. Title : English
  44. Language : English
  45. Service kind : Complete Main
  46. Default : No
  47. Forced : No

  48. Text #1
  49. ID : 3
  50. Format : UTF-8
  51. Codec ID : S_TEXT/UTF8
  52. Codec ID/Info : UTF-8 Plain Text
  53. Duration : 1 h 51 min
  54. Bit rate : 56 b/s
  55. Count of elements : 1277
  56. Stream size : 45.8 KiB (0%)
  57. Title : English
  58. Language : English
  59. Default : No
  60. Forced : No

  61. Text #2
  62. ID : 4
  63. Format : UTF-8
  64. Codec ID : S_TEXT/UTF8
  65. Codec ID/Info : UTF-8 Plain Text
  66. Duration : 1 h 54 min
  67. Bit rate : 60 b/s
  68. Count of elements : 1437
  69. Stream size : 50.6 KiB (0%)
  70. Title : English [SDH]
  71. Language : English
  72. Default : No
  73. Forced : No
复制代码

异见者4K.The.Dissident.2020.2160p.WEB-DL.x265.8bit.SDR.DDP5.1-4K电影下载

异见者4K.The.Dissident.2020.2160p.WEB-DL.x265.8bit.SDR.DDP5.1【4K SDR 8.91 GB】
[Hao4K]异见者4K.The.Dissident.2020.2160p.WEB-DL.x265.8bit.SDR.DDP5.1-iKA.torrent (45.07 KB, 售价: 3 K币)
回复

使用道具 举报

全部回复50

行行摄摄 发表于 2021-4-2 16:18:15

行行摄摄 沙发

2021-4-2 16:18:15

是不是就是那个被分尸的????
回复 支持 1 反对 0

使用道具 举报

zqrfdc 发表于 2021-4-2 16:31:22

zqrfdc 板凳

2021-4-2 16:31:22

是的,表达了不同的意见
回复 支持 反对

使用道具 举报

bbgrnnji 发表于 2021-4-2 17:11:09

bbgrnnji 地板

2021-4-2 17:11:09

谢谢楼主,不知道有没有字幕
回复 支持 反对

使用道具 举报

caojk 发表于 2021-4-2 17:12:28

caojk 5#

2021-4-2 17:12:28

这个更新好快,谢谢分享
回复 支持 反对

使用道具 举报

dk30129 发表于 2021-4-2 17:48:20

dk30129 6#

2021-4-2 17:48:20

谢谢分享,辛苦了!!!
回复 支持 反对

使用道具 举报

jingyun1978 发表于 2021-4-2 18:18:21

jingyun1978 7#

2021-4-2 18:18:21


谢谢分享,辛苦了!!!
回复 支持 反对

使用道具 举报

jgxing 发表于 2021-4-2 19:07:15 Hao4K手机版

jgxing 8#

2021-4-2 19:07:15

求字幕
回复 支持 1 反对 0

使用道具 举报

manipulata 发表于 2021-4-2 20:36:42

manipulata 9#

2021-4-2 20:36:42

感谢分享,奈斯啊,厉害
回复 支持 反对

使用道具 举报

8lyj 发表于 2021-4-2 21:42:32

8lyj 10#

2021-4-2 21:42:32

好看吗“感谢分享。
回复 支持 反对

使用道具 举报

yale 发表于 2021-4-2 22:51:21

yale 11#

2021-4-2 22:51:21

谢谢分享
回复 支持 反对

使用道具 举报

wehao12345 发表于 2021-4-2 23:02:11

wehao12345 12#

2021-4-2 23:02:11

这个更新好快,谢谢分享
回复 支持 反对

使用道具 举报

逆风而行 发表于 2021-4-3 01:50:31

逆风而行 13#

2021-4-3 01:50:31

感谢,只是还没有找到合适的字幕~
回复 支持 反对

使用道具 举报

QJJQ 发表于 2021-4-3 09:24:30

QJJQ 14#

2021-4-3 09:24:30

谢谢分享,辛苦了!!
回复 支持 反对

使用道具 举报

Makoto8023 发表于 2021-4-3 10:50:11

Makoto8023 15#

2021-4-3 10:50:11

谢谢分享
回复 支持 反对

使用道具 举报

aizezi 发表于 2021-4-3 11:45:14

aizezi 16#

2021-4-3 11:45:14

感谢分享,厉害了厉害
回复 支持 反对

使用道具 举报

liyun80000 发表于 2021-4-3 11:55:20

liyun80000 17#

2021-4-3 11:55:20

谢谢分享,辛苦了
回复 支持 反对

使用道具 举报

zhujun70 发表于 2021-4-3 12:56:37

zhujun70 18#

2021-4-3 12:56:37

谢谢分享
回复 支持 反对

使用道具 举报

   发表回复

您需要登录后才可以回帖 登录 | 立即注册

返回列表 本版积分规则

  • 在线客服

  • 返回顶部