微博 微信

Hao4K影音

电影频道
电影封面:
片  名: 生死狙击4K
电影分类: 动作 惊悚 剧情 
国  家: 美国 
年  代: 00年代
分 辨 率: 4K(3840x2160)
电影格式: MKV|REMUX 
画质标准: HDR10 
音质编码: Dolby Digital Plus Audio 
电影声道: 5.1声道 
帧数/FPS: 23.976 帧
电影语言: 英文原版 
资源大小: 13.67 GB
导  演: 安东尼·福奎阿
豆瓣评分: 7.8 分
中文字幕: /thread-55967-1-1.html
剧情简介: 这是一部谍中谍式的电影,不过主角换成了狙击手。美国退役优秀狙击手鲍勃(马克•沃尔伯格 Mark Wahlberg 饰)正在阿肯色州享受退役后的休闲时光,不料,平地生波,他的前上司前来拜访他,希望他能接受一项新的任务――在总统街头演讲那天充当隐形狙击手暗中保护总统。虽然十万分不情愿,但禁不住上司的游说,鲍勃最终答应了。总统演讲那天,鲍勃正在仔细观察着四周情况时,突然会场遭到枪手袭击,总统身边的衣索比亚主教被杀。鲍勃被当成暗杀者遭遇警方追捕。心知成了替罪羔羊,鲍勃在身中两枪的情况下奋力逃走了。鲍勃此时唯一的出路就是找出幕后的真凶,为自己洗刷罪名。
狙击手 / 辣手枪(港) / 狙击生死线(台) / 神射手 / Double Target/生死狙击4K.Shooter.2007.2160p.AMZN.WEB-DL.x265.10bit.HDR10Plus.DDP5.1-4k电影信息
  1. Video
  2. ID : 1
  3. Format : HEVC
  4. Format/Info : High Efficiency Video Coding
  5. Format profile : Main 10@L5@Main
  6. HDR format : SMPTE ST 2094 App 4, Version 1, HDR10+ Profile B compatible
  7. Codec ID : V_MPEGH/ISO/HEVC
  8. Duration : 2 h 5 min
  9. Bit rate : 14.9 Mb/s
  10. Width : 3 840 pixels
  11. Height : 1 600 pixels
  12. Display aspect ratio : 2.40:1
  13. Frame rate mode : Constant
  14. Frame rate : 23.976 (24000/1001) FPS
  15. Color space : YUV
  16. Chroma subsampling : 4:2:0
  17. Bit depth : 10 bits
  18. Bits/(Pixel*Frame) : 0.101
  19. Stream size : 13.1 GiB (96%)
  20. Default : Yes
  21. Forced : No
  22. Color range : Limited
  23. Color primaries : BT.2020
  24. Transfer characteristics : PQ
  25. Matrix coefficients : BT.2020 non-constant
  26. Mastering display color primaries : Display P3
  27. Mastering display luminance : min: 0.0001 cd/m2, max: 1000 cd/m2
  28. Maximum Content Light Level : 1000 cd/m2
  29. Maximum Frame-Average Light Level : 468 cd/m2

  30. Audio
  31. ID : 2
  32. Format : E-AC-3
  33. Format/Info : Enhanced AC-3
  34. Commercial name : Dolby Digital Plus
  35. Codec ID : A_EAC3
  36. Duration : 2 h 5 min
  37. Bit rate mode : Constant
  38. Bit rate : 640 kb/s
  39. Channel(s) : 6 channels
  40. Channel layout : L R C LFE Ls Rs
  41. Sampling rate : 48.0 kHz
  42. Frame rate : 31.250 FPS (1536 SPF)
  43. Compression mode : Lossy
  44. Stream size : 575 MiB (4%)
  45. Title : DDP 5.1
  46. Language : English
  47. Service kind : Complete Main
  48. Default : No
  49. Forced : No

  50. Text
  51. ID : 3
  52. Format : UTF-8
  53. Codec ID : S_TEXT/UTF8
  54. Codec ID/Info : UTF-8 Plain Text
  55. Duration : 1 h 56 min
  56. Bit rate : 56 b/s
  57. Count of elements : 1443
  58. Stream size : 48.6 KiB (0%)
  59. Title : SRT
  60. Language : English
  61. Default : Yes
  62. Forced : No

  63. Menu
  64. 00:00:00.000 : en:Chapter 01
  65. 00:08:12.450 : en:Chapter 02
  66. 00:16:21.939 : en:Chapter 03
  67. 00:23:12.599 : en:Chapter 04
  68. 00:31:36.269 : en:Chapter 05
  69. 00:39:01.964 : en:Chapter 06
  70. 00:44:24.537 : en:Chapter 07
  71. 00:51:26.458 : en:Chapter 08
  72. 00:57:51.635 : en:Chapter 09
  73. 01:05:08.946 : en:Chapter 10
  74. 01:11:43.841 : en:Chapter 11
  75. 01:18:00.342 : en:Chapter 12
  76. 01:23:31.548 : en:Chapter 13
  77. 01:29:56.182 : en:Chapter 14
  78. 01:36:00.046 : en:Chapter 15
  79. 01:39:56.031 : en:Chapter 16
  80. 01:50:08.018 : en:Chapter 17
  81. 01:55:30.465 : en:Chapter 18
  82. 02:00:28.262 : en:Chapter 19
复制代码

狙击手 / 辣手枪(港) / 狙击生死线(台) / 神射手 / Double Target/生死狙击4K.Shooter.2007.2160p.AMZN.WEB-DL.x265.10bit.HDR10Plus.DDP5.1-4K电影下载

生死狙击4K.Shooter.2007.2160p.AMZN.WEB-DL.x265.10bit.HDR10Plus.DDP5.1【4K  HDR 13.67 GB】
[Hao4K]生死狙击4K.Shooter.2007.2160p.AMZN.WEB-DL.x265.10bit.HDR10Plus.DDP5.1-SWT.torrent (68.91 KB, 售价: 2 K币)
回复

使用道具 举报

全部回复209

yale 发表于 2021-4-3 22:38:41

yale 沙发

2021-4-3 22:38:41

谢谢分享
回复 支持 反对

使用道具 举报

huang_dog 发表于 2021-4-3 22:44:55

huang_dog 板凳

2021-4-3 22:44:55

可看,最后那个空枪真是神来之笔,谢谢分享
回复 支持 1 反对 0

使用道具 举报

qiguai2000 发表于 2021-4-3 22:59:25 Hao4K手机版

qiguai2000 地板

2021-4-3 22:59:25

谢谢分享.......
回复 支持 反对

使用道具 举报

甫致 发表于 2021-4-3 23:18:18

甫致 5#

2021-4-3 23:18:18

感谢分享,
回复 支持 反对

使用道具 举报

mccliqiang 发表于 2021-4-3 23:22:45

mccliqiang 6#

2021-4-3 23:22:45

生死狙击原来是不是有过,谢谢分享
回复 支持 反对

使用道具 举报

zhangnuannuan 发表于 2021-4-3 23:50:56

zhangnuannuan 7#

2021-4-3 23:50:56

谢谢分享,顶你!!!
回复 支持 反对

使用道具 举报

evan_mky0318 发表于 2021-4-3 23:52:16

evan_mky0318 8#

2021-4-3 23:52:16

感谢有你,分享快乐
回复 支持 反对

使用道具 举报

1138393837 发表于 2021-4-4 00:05:24

1138393837 9#

2021-4-4 00:05:24


谢谢分享...
回复 支持 反对

使用道具 举报

ARFEI 发表于 2021-4-4 07:09:22

ARFEI 10#

2021-4-4 07:09:22

这部电影看了几次,确实是好看,多谢分享。
回复 支持 反对

使用道具 举报

guyver416 发表于 2021-4-4 07:31:04

guyver416 11#

2021-4-4 07:31:04

好片應該推一下,感謝版大分享!
回复 支持 反对

使用道具 举报

kelann 发表于 2021-4-4 07:31:29

kelann 12#

2021-4-4 07:31:29

典型的美式大片,看看吧
回复 支持 反对

使用道具 举报

Liuxudong926 发表于 2021-4-4 08:16:22 Hao4K手机版

Liuxudong926 13#

2021-4-4 08:16:22

生死狙击出4K版了?
感谢分享辛苦了!
蓝光1080P时代记得思路评选画质最好的电影当时生死狙击榜上有名。
回复 支持 反对

使用道具 举报

流星 发表于 2021-4-4 08:25:21

流星 14#

2021-4-4 08:25:21

谢谢分享,貌似找不到字幕啊
回复 支持 反对

使用道具 举报

PZJPHR 发表于 2021-4-4 08:29:38

PZJPHR 15#

2021-4-4 08:29:38


谢谢分享.
回复 支持 反对

使用道具 举报

leton 发表于 2021-4-4 08:31:46 Hao4K手机版

leton 16#

2021-4-4 08:31:46

谢谢楼主的分享,好片子,十分喜欢,谢谢。
回复 支持 反对

使用道具 举报

liuxingyu764 发表于 2021-4-4 08:58:49

liuxingyu764 17#

2021-4-4 08:58:49

经典好片啊,必须感谢楼主,为楼主点赞一下。
回复 支持 反对

使用道具 举报

d370216774 发表于 2021-4-4 09:01:07

d370216774 18#

2021-4-4 09:01:07

好片好片 感谢分享
回复 支持 反对

使用道具 举报

   发表回复

您需要登录后才可以回帖 登录 | 立即注册

返回列表 本版积分规则

  • 在线客服

  • 返回顶部