微博 微信

Hao4K影音

电影频道
电影封面:
片  名: WeWork 4K
电影分类: 纪录片 
国  家: 美国 
年  代: 2021年
分 辨 率: 4K(3840x2160)
电影格式: MKV|REMUX 
画质标准: SDR 
音质编码: Dolby Digital Plus Audio 
电影声道: 5.1声道 
帧数/FPS: 23.976 帧
电影语言: 英文原版 
资源大小: 9.36 GB
导  演: 杰德·罗斯坦
豆瓣评分: 6.7 分
中文字幕: -
剧情简介: WeWork: or the Making and Breaking of a $47 Billion Unicorn explores the rise and fall of one of the biggest corporate flameouts and venture capitalist bubbles in recent years – the story of WeWork, and its hippie-messianic leader Adam Neumann.
WeWork: or the Making and Breaking of a $47 Billion Unicorn/WeWork 4K.2021.2160p.HULU.WEBRip.x265.10bit.SDR.DDP5.1-4k电影信息
  1. Video
  2. ID : 1
  3. Format : HEVC
  4. Format/Info : High Efficiency Video Coding
  5. Format profile : Main 10@L5.1@Main
  6. Codec ID : V_MPEGH/ISO/HEVC
  7. Duration : 1 h 41 min
  8. Bit rate : 12.9 Mb/s
  9. Width : 3 840 pixels
  10. Height : 2 160 pixels
  11. Display aspect ratio : 16:9
  12. Frame rate mode : Constant
  13. Frame rate : 23.976 (24000/1001) FPS
  14. Color space : YUV
  15. Chroma subsampling : 4:2:0
  16. Bit depth : 10 bits
  17. Bits/(Pixel*Frame) : 0.065
  18. Stream size : 9.17 GiB (98%)
  19. Language : English
  20. Default : Yes
  21. Forced : No

  22. Audio
  23. ID : 2
  24. Format : E-AC-3
  25. Format/Info : Enhanced AC-3
  26. Commercial name : Dolby Digital Plus
  27. Codec ID : A_EAC3
  28. Duration : 1 h 41 min
  29. Bit rate mode : Constant
  30. Bit rate : 256 kb/s
  31. Channel(s) : 6 channels
  32. Channel layout : L R C LFE Ls Rs
  33. Sampling rate : 48.0 kHz
  34. Frame rate : 31.250 FPS (1536 SPF)
  35. Compression mode : Lossy
  36. Stream size : 186 MiB (2%)
  37. Language : English
  38. Service kind : Complete Main
  39. Default : Yes
  40. Forced : No

  41. Text #1
  42. ID : 3
  43. Format : UTF-8
  44. Codec ID : S_TEXT/UTF8
  45. Codec ID/Info : UTF-8 Plain Text
  46. Duration : 1 h 39 min
  47. Bit rate : 129 b/s
  48. Count of elements : 1945
  49. Stream size : 94.3 KiB (0%)
  50. Title : English
  51. Language : English
  52. Default : No
  53. Forced : No

  54. Text #2
  55. ID : 4
  56. Format : UTF-8
  57. Codec ID : S_TEXT/UTF8
  58. Codec ID/Info : UTF-8 Plain Text
  59. Duration : 1 h 39 min
  60. Bit rate : 134 b/s
  61. Count of elements : 2000
  62. Stream size : 98.4 KiB (0%)
  63. Title : Spanish; Castilian
  64. Language : Spanish
  65. Default : No
  66. Forced : No
复制代码

WeWork: or the Making and Breaking of a $47 Billion Unicorn/WeWork 4K.2021.2160p.HULU.WEBRip.x265.10bit.SDR.DDP5.1-4K电影下载

WeWork 4K.2021.2160p.HULU.WEBRip.x265.10bit.SDR.DDP5.1【4K SDR 9.36 GB】
WeWork.2021.2160p.HULU.WEBRip.x265.10bit.SDR.DDP5.1-KOGi.torrent (47.47 KB)
回复

使用道具 举报

全部回复48

bbgrnnji 发表于 2021-4-6 11:57:27

bbgrnnji 沙发

2021-4-6 11:57:27

那么多好的资源怎么就不出4K呢
回复 支持 反对

使用道具 举报

dragon_walk 发表于 2021-4-6 12:01:26

dragon_walk 板凳

2021-4-6 12:01:26

评分可以,下来看看
回复 支持 反对

使用道具 举报

sectreearl 发表于 2021-4-6 12:08:10

sectreearl 地板

2021-4-6 12:08:10

WeWork Wechat
回复 支持 反对

使用道具 举报

iris6267 发表于 2021-4-6 15:20:00

iris6267 5#

2021-4-6 15:20:00

感谢分享
回复 支持 反对

使用道具 举报

yangly 发表于 2021-4-6 15:33:02

yangly 6#

2021-4-6 15:33:02

感谢分享!!
回复 支持 反对

使用道具 举报

r31325 发表于 2021-4-6 15:54:05

r31325 7#

2021-4-6 15:54:05

剧照很奇怪啊呵呵
回复 支持 反对

使用道具 举报

Chilli 发表于 2021-4-6 16:34:08

Chilli 8#

2021-4-6 16:34:08

好资源,好4K
回复 支持 反对

使用道具 举报

月光麦田 发表于 2021-4-6 17:35:17

月光麦田 9#

2021-4-6 17:35:17

喜欢纪录片!!!!!
回复 支持 反对

使用道具 举报

xuesf123 发表于 2021-4-6 18:06:08

xuesf123 10#

2021-4-6 18:06:08

这个不是4K资源吗?文件也不小。
回复 支持 反对

使用道具 举报

dk30129 发表于 2021-4-6 19:10:34

dk30129 11#

2021-4-6 19:10:34

谢谢分享,顶你!!!
回复 支持 反对

使用道具 举报

ARFEI 发表于 2021-4-6 19:42:50

ARFEI 12#

2021-4-6 19:42:50

SDR的就先不下载,还是感谢分享。
回复 支持 反对

使用道具 举报

december 发表于 2021-4-6 20:30:31

december 13#

2021-4-6 20:30:31

感谢分享!!
回复 支持 反对

使用道具 举报

deeper2021 发表于 2021-4-6 20:32:53

deeper2021 14#

2021-4-6 20:32:53

评分可以,下来看看
回复 支持 反对

使用道具 举报

yale 发表于 2021-4-6 21:43:36

yale 15#

2021-4-6 21:43:36

谢谢分享
回复 支持 反对

使用道具 举报

gyt 发表于 2021-4-6 22:34:46

gyt 16#

2021-4-6 22:34:46

谢谢分享,顶你!!!
回复 支持 反对

使用道具 举报

spike972 发表于 2021-4-7 07:57:33

spike972 17#

2021-4-7 07:57:33

支持一下楼主,顶起来
回复 支持 反对

使用道具 举报

Makoto8023 发表于 2021-4-7 08:16:50

Makoto8023 18#

2021-4-7 08:16:50

谢谢分享
回复 支持 反对

使用道具 举报

   发表回复

您需要登录后才可以回帖 登录 | 立即注册

返回列表 本版积分规则

  • 在线客服

  • 返回顶部