微博 微信

Hao4K影音

电影频道
电影封面:
片  名: 撒旦之鸦4K
电影分类: 恐怖 惊悚 
国  家: 英国 
年  代: 70年代
分 辨 率: 4K(3840x2160)
电影格式: MKV|REMUX 
画质标准: SDR 
音质编码: 其他AAC 
电影声道: 2.0声道 
帧数/FPS: 23.976 帧
电影语言: 英文原版 
资源大小: 22.66 GB
导  演: 皮尔斯·哈格德
豆瓣评分: 5.8 分
中文字幕: -
剧情简介: 农夫Ralph Gower耕田时发现一具带有皮毛的尸体,他认为这是传说中魔鬼的躯体,并把这事告诉了从伦敦来的大法官,大法官认为这只是无稽之谈。当天,Gower主人外甥的女友晚上受到惊吓中了邪,事情使村民们笼罩在恐惧之下,真的是传说中的魔鬼复活了吗?最可怕的是,女孩Angel Blake扮演起原始巫术的巫师,带领青年们走向一条歧路——对魔鬼顶礼膜拜。后果是,村里更多的人被杀。事情完全向着一个疯狂的方向发展……
Satan's Skin / 捉妖降魔 / 鬼爪/撒旦之鸦4K.The.Blood.on.Satans.Claw.1971.2160p.BluRay.x265.10bit.SDR.FLAC.2.0-4k电影信息
  1. Video
  2. ID : 1
  3. Format : HEVC
  4. Format/Info : High Efficiency Video Coding
  5. Format profile : Main 10@L5.1@High
  6. Codec ID : V_MPEGH/ISO/HEVC
  7. Duration : 1 h 36 min
  8. Bit rate : 32.9 Mb/s
  9. Width : 3 840 pixels
  10. Height : 2 076 pixels
  11. Display aspect ratio : 1.85:1
  12. Frame rate mode : Constant
  13. Frame rate : 23.976 (24000/1001) FPS
  14. Color space : YUV
  15. Chroma subsampling : 4:2:0
  16. Bit depth : 10 bits
  17. Bits/(Pixel*Frame) : 0.172
  18. Stream size : 22.1 GiB (98%)
  19. Writing library : x265 3.5+9-bf91444e0:[Windows][MSVC 1900][64 bit] 10bit
  20. Encoding settings : cpuid=1111039 / frame-threads=6 / numa-pools=32 / wpp / no-pmode / no-pme / no-psnr / no-ssim / log-level=2 / input-csp=1 / input-res=3840x2076 / interlace=0 / total-frames=138744 / level-idc=51 / high-tier=1 / uhd-bd=0 / ref=4 / no-allow-non-conformance / repeat-headers / annexb / aud / no-eob / no-eos / hrd / info / hash=0 / no-temporal-layers / no-open-gop / min-keyint=23 / keyint=250 / gop-lookahead=0 / bframes=4 / b-adapt=2 / b-pyramid / bframe-bias=0 / rc-lookahead=25 / lookahead-slices=4 / scenecut=40 / hist-scenecut=0 / radl=0 / no-splice / no-intra-refresh / ctu=64 / min-cu-size=8 / rect / no-amp / max-tu-size=32 / tu-inter-depth=1 / tu-intra-depth=1 / limit-tu=0 / rdoq-level=2 / dynamic-rd=0.00 / no-ssim-rd / signhide / no-tskip / nr-intra=0 / nr-inter=0 / no-constrained-intra / no-strong-intra-smoothing / max-merge=3 / limit-refs=3 / limit-modes / me=3 / subme=3 / merange=57 / temporal-mvp / no-frame-dup / no-hme / weightp / no-weightb / no-analyze-src-pics / deblock=-3:-3 / no-sao / no-sao-non-deblock / rd=4 / selective-sao=0 / no-early-skip / rskip / no-fast-intra / no-tskip-fast / no-cu-lossless / no-b-intra / no-splitrd-skip / rdpenalty=0 / psy-rd=2.00 / psy-rdoq=1.00 / no-rd-refine / no-lossless / cbqpoffs=0 / crqpoffs=0 / rc=crf / crf=12.8 / qcomp=0.60 / qpstep=4 / stats-write=0 / stats-read=0 / vbv-maxrate=160000 / vbv-bufsize=160000 / vbv-init=0.9 / min-vbv-fullness=50.0 / max-vbv-fullness=80.0 / crf-max=0.0 / crf-min=0.0 / ipratio=1.40 / pbratio=1.30 / aq-mode=2 / aq-strength=1.00 / cutree / zone-count=0 / no-strict-cbr / qg-size=32 / no-rc-grain / qpmax=69 / qpmin=0 / no-const-vbv / sar=1 / overscan=0 / videoformat=5 / range=0 / colorprim=1 / transfer=1 / colormatrix=1 / chromaloc=0 / display-window=0 / cll=0,0 / min-luma=0 / max-luma=1023 / log2-max-poc-lsb=8 / vui-timing-info / vui-hrd-info / slices=1 / opt-qp-pps / opt-ref-list-length-pps / no-multi-pass-opt-rps / scenecut-bias=0.05 / hist-threshold=0.03 / no-opt-cu-delta-qp / no-aq-motion / no-hdr10 / no-hdr10-opt / no-dhdr10-opt / no-idr-recovery-sei / analysis-reuse-level=0 / analysis-save-reuse-level=0 / analysis-load-reuse-level=0 / scale-factor=0 / refine-intra=0 / refine-inter=0 / refine-mv=1 / refine-ctu-distortion=0 / no-limit-sao / ctu-info=0 / no-lowpass-dct / refine-analysis-type=0 / copy-pic=1 / max-ausize-factor=1.0 / no-dynamic-refine / no-single-sei / no-hevc-aq / no-svt / no-field / qp-adaptation-range=1.00 / scenecut-aware-qp=0conformance-window-offsets / right=0 / bottom=0 / decoder-max-rate=0 / no-vbv-live-multi-pass
  21. Default : Yes
  22. Forced : No
  23. Color range : Limited
  24. Color primaries : BT.709
  25. Transfer characteristics : BT.709
  26. Matrix coefficients : BT.709

  27. Audio #1
  28. ID : 2
  29. Format : FLAC
  30. Format/Info : Free Lossless Audio Codec
  31. Codec ID : A_FLAC
  32. Duration : 1 h 36 min
  33. Bit rate mode : Variable
  34. Bit rate : 264 kb/s
  35. Channel(s) : 2 channels
  36. Channel layout : L R
  37. Sampling rate : 48.0 kHz
  38. Frame rate : 11.719 FPS (4096 SPF)
  39. Bit depth : 16 bits
  40. Compression mode : Lossless
  41. Stream size : 182 MiB (1%)
  42. Writing library : libFLAC 1.3.2 (UTC 2017-01-01)
  43. Language : English
  44. Default : Yes
  45. Forced : No

  46. Audio #2
  47. ID : 3
  48. Format : AAC LC
  49. Format/Info : Advanced Audio Codec Low Complexity
  50. Codec ID : A_AAC-2
  51. Duration : 1 h 36 min
  52. Bit rate : 89.5 kb/s
  53. Channel(s) : 2 channels
  54. Channel layout : L R
  55. Sampling rate : 48.0 kHz
  56. Frame rate : 46.875 FPS (1024 SPF)
  57. Compression mode : Lossy
  58. Delay relative to video : 9 ms
  59. Stream size : 61.8 MiB (0%)
  60. Title : commentary
  61. Language : English
  62. Default : No
  63. Forced : No

  64. Audio #3
  65. ID : 4
  66. Format : AAC LC
  67. Format/Info : Advanced Audio Codec Low Complexity
  68. Codec ID : A_AAC-2
  69. Duration : 1 h 36 min
  70. Bit rate : 132 kb/s
  71. Channel(s) : 2 channels
  72. Channel layout : L R
  73. Sampling rate : 48.0 kHz
  74. Frame rate : 46.875 FPS (1024 SPF)
  75. Compression mode : Lossy
  76. Delay relative to video : 9 ms
  77. Stream size : 89.9 MiB (0%)
  78. Title : commentary
  79. Language : English
  80. Default : No
  81. Forced : No

  82. Text #1
  83. ID : 5
  84. Format : PGS
  85. Muxing mode : zlib
  86. Codec ID : S_HDMV/PGS
  87. Codec ID/Info : Picture based subtitle format used on BDs/HD-DVDs
  88. Duration : 1 h 32 min
  89. Bit rate : 15.0 kb/s
  90. Count of elements : 1179
  91. Stream size : 9.95 MiB (0%)
  92. Language : English
  93. Default : No
  94. Forced : No

  95. Text #2
  96. ID : 6
  97. Format : PGS
  98. Muxing mode : zlib
  99. Codec ID : S_HDMV/PGS
  100. Codec ID/Info : Picture based subtitle format used on BDs/HD-DVDs
  101. Duration : 1 h 32 min
  102. Bit rate : 16.8 kb/s
  103. Count of elements : 1196
  104. Stream size : 11.1 MiB (0%)
  105. Language : German
  106. Default : No
  107. Forced : No

  108. Menu
  109. 00:00:00.000 : en:Chapter 01
  110. 00:07:04.173 : en:Chapter 02
  111. 00:16:15.808 : en:Chapter 03
  112. 00:23:40.836 : en:Chapter 04
  113. 00:33:02.355 : en:Chapter 05
  114. 00:40:16.539 : en:Chapter 06
  115. 00:46:29.077 : en:Chapter 07
  116. 00:58:35.011 : en:Chapter 08
  117. 01:05:14.619 : en:Chapter 09
  118. 01:12:27.634 : en:Chapter 10
  119. 01:18:54.104 : en:Chapter 11
  120. 01:32:11.317 : en:Chapter 12
复制代码

Satan's Skin / 捉妖降魔 / 鬼爪/撒旦之鸦4K.The.Blood.on.Satans.Claw.1971.2160p.BluRay.x265.10bit.SDR.FLAC.2.0-4K电影下载

撒旦之鸦4K.The.Blood.on.Satans.Claw.1971.2160p.BluRay.x265.10bit.SDR.FLAC.2.0【4K SDR 22.66 GB】
[Hao4K]撒旦之鸦4K.The.Blood.on.Satans.Claw.1971.2160p.BluRay.x265.10bit.SDR.FLAC.torrent (57.39 KB)
回复

使用道具 举报

全部回复36

opkqq00 发表于 2021-4-7 17:15:09

opkqq00 沙发

2021-4-7 17:15:09


感谢分享,楼主辛苦了
回复 支持 反对

使用道具 举报

dyczw 发表于 2021-4-8 11:21:29

dyczw 板凳

2021-4-8 11:21:29

感谢分享,辛苦了
回复 支持 反对

使用道具 举报

_bryan 发表于 2021-4-8 11:41:16

_bryan 地板

2021-4-8 11:41:16

The.Blood.on.Satans.Claw.1971.1080p.BluRay.H264.AAC-hao4k.srt (73.71 KB)
回复 支持 反对

使用道具 举报

农夫舅舅 发表于 2021-4-8 13:37:27 Hao4K手机版

农夫舅舅 5#

2021-4-8 13:37:27

对楼主的无私奉献点赞
回复 支持 反对

使用道具 举报

chris811209 发表于 2021-4-8 14:05:37

chris811209 6#

2021-4-8 14:05:37

谢谢楼主的奉献!!!谢谢!!
回复 支持 反对

使用道具 举报

放开那大腿 发表于 2021-4-8 14:56:43

放开那大腿 7#

2021-4-8 14:56:43

感谢楼主发布免费资源
回复 支持 反对

使用道具 举报

andywjhh 发表于 2021-4-8 16:46:27

andywjhh 8#

2021-4-8 16:46:27

好资源很给力
回复 支持 反对

使用道具 举报

cb917918 发表于 2021-4-8 17:06:53

cb917918 9#

2021-4-8 17:06:53


感谢分享,辛苦了
回复 支持 反对

使用道具 举报

ll9000139com 发表于 2021-4-8 17:40:43

ll9000139com 10#

2021-4-8 17:40:43

多谢!
回复 支持 反对

使用道具 举报

yale 发表于 2021-4-8 19:40:37

yale 11#

2021-4-8 19:40:37

谢谢分享
回复 支持 反对

使用道具 举报

guiguziqin 发表于 2021-4-8 20:04:54

guiguziqin 12#

2021-4-8 20:04:54

楼主发帖辛苦了,感觉电影不错
回复 支持 反对

使用道具 举报

dk30129 发表于 2021-4-8 20:19:24

dk30129 13#

2021-4-8 20:19:24

谢谢分享,顶你!!!
回复 支持 反对

使用道具 举报

Psionky 发表于 2021-4-8 21:35:46

Psionky 14#

2021-4-8 21:35:46

感谢分享 !
回复 支持 反对

使用道具 举报

hanshuai1988 发表于 2021-4-8 23:58:47

hanshuai1988 15#

2021-4-8 23:58:47

感谢楼主的分享!
回复 支持 反对

使用道具 举报

世爵39 发表于 7 天前

世爵39 16#

7 天前

感谢楼主发布免费资源
回复 支持 反对

使用道具 举报

世爵39 发表于 7 天前

世爵39 17#

7 天前

又一部经典 影片
回复 支持 反对

使用道具 举报

世爵39 发表于 7 天前

世爵39 18#

7 天前

我喜欢这类影片题材
回复 支持 反对

使用道具 举报

   发表回复

您需要登录后才可以回帖 登录 | 立即注册

返回列表 本版积分规则

  • 在线客服

  • 返回顶部