微博 微信

Hao4K影音

电影频道
电影封面:
片  名: Own the Room 4K
电影分类: 纪录片 
国  家: 美国 
年  代: 2021年
分 辨 率: 4K(3840x2160)
电影格式: MKV|REMUX 
画质标准: HDR SDR 
音质编码: Dolby Digital Plus Audio 
电影声道: 5.1声道 
帧数/FPS: 23.976 帧
电影语言: 英文原版 
资源大小: 10.45 GB
导  演: Cristina Costantini / Darren Foster
豆瓣评分: 7.7 分
中文字幕: -
剧情简介: Follows five students and their journey as they compete to win Global Student Entrepreneur Awards.
Own.the.Room4K.2021.2160p.DSNP.WEBRip.x265.8bit.SDR.DDP5.1-4k电影j纪录片信息
  1. Video
  2. ID : 1
  3. Format : HEVC
  4. Format/Info : High Efficiency Video Coding
  5. Format profile : Main@L5@High
  6. Codec ID : V_MPEGH/ISO/HEVC
  7. Duration : 1 h 30 min
  8. Bit rate : 19.1 Mb/s
  9. Width : 3 840 pixels
  10. Height : 2 160 pixels
  11. Display aspect ratio : 16:9
  12. Frame rate mode : Constant
  13. Frame rate : 23.976 (24000/1001) FPS
  14. Color space : YUV
  15. Chroma subsampling : 4:2:0
  16. Bit depth : 8 bits
  17. Bits/(Pixel*Frame) : 0.096
  18. Stream size : 12.1 GiB (99%)
  19. Writing library : x265 3.5_RC2:[Linux][GCC 7.5.0][64 bit] 8bit+10bit+12bit
  20. Encoding settings : cpuid=1111039 / frame-threads=1 / wpp / no-pmode / no-pme / no-psnr / no-ssim / log-level=2 / input-csp=1 / input-res=3840x2160 / interlace=0 / total-frames=0 / level-idc=50 / high-tier=1 / uhd-bd=0 / ref=2 / no-allow-non-conformance / repeat-headers / annexb / no-aud / no-hrd / info / hash=0 / no-temporal-layers / no-open-gop / min-keyint=48 / keyint=48 / gop-lookahead=0 / bframes=4 / b-adapt=0 / b-pyramid / bframe-bias=0 / rc-lookahead=48 / lookahead-slices=8 / scenecut=0 / hist-scenecut=0 / radl=0 / no-splice / no-intra-refresh / ctu=32 / min-cu-size=8 / no-rect / no-amp / max-tu-size=16 / tu-inter-depth=2 / tu-intra-depth=2 / limit-tu=0 / rdoq-level=1 / dynamic-rd=0.00 / no-ssim-rd / signhide / no-tskip / nr-intra=0 / nr-inter=0 / no-constrained-intra / no-strong-intra-smoothing / max-merge=3 / limit-refs=1 / no-limit-modes / me=1 / subme=2 / merange=44 / temporal-mvp / no-frame-dup / no-hme / weightp / no-weightb / no-analyze-src-pics / deblock=0:0 / no-sao / no-sao-non-deblock / rd=4 / selective-sao=0 / early-skip / rskip / no-fast-intra / no-tskip-fast / no-cu-lossless / b-intra / no-splitrd-skip / rdpenalty=1 / psy-rd=1.60 / psy-rdoq=5.00 / no-rd-refine / no-lossless / cbqpoffs=0 / crqpoffs=0 / rc=abr / bitrate=20000 / qcomp=0.75 / qpstep=4 / stats-write=0 / stats-read=0 / vbv-maxrate=24000 / vbv-bufsize=40000 / vbv-init=0.9 / ipratio=1.40 / pbratio=1.30 / aq-mode=3 / aq-strength=1.00 / no-cutree / zone-count=0 / no-strict-cbr / qg-size=32 / no-rc-grain / qpmax=69 / qpmin=0 / no-const-vbv / sar=1 / overscan=0 / videoformat=5 / range=0 / colorprim=1 / transfer=1 / colormatrix=1 / chromaloc=0 / display-window=0 / cll=0,0 / min-luma=0 / max-luma=255 / log2-max-poc-lsb=8 / vui-timing-info / vui-hrd-info / slices=1 / no-opt-qp-pps / no-opt-ref-list-length-pps / no-multi-pass-opt-rps / scenecut-bias=0.00 / hist-threshold=0.01 / no-opt-cu-delta-qp / no-aq-motion / no-hdr10 / no-hdr10-opt / no-dhdr10-opt / no-idr-recovery-sei / analysis-reuse-level=0 / analysis-save-reuse-level=0 / analysis-load-reuse-level=0 / scale-factor=0 / refine-intra=0 / refine-inter=0 / refine-mv=1 / refine-ctu-distortion=0 / no-limit-sao / ctu-info=0 / no-lowpass-dct / refine-analysis-type=0 / copy-pic=1 / max-ausize-factor=1.0 / no-dynamic-refine / no-single-sei / no-hevc-aq / no-svt / no-field / qp-adaptation-range=1.00 / no-scenecut-aware-qpconformance-window-offsets / right=0 / bottom=0
  21. Default : Yes
  22. Forced : No
  23. Color range : Limited
  24. Color primaries : BT.709
  25. Transfer characteristics : BT.709
  26. Matrix coefficients : BT.709

  27. Audio
  28. ID : 2
  29. Format : E-AC-3
  30. Format/Info : Enhanced AC-3
  31. Commercial name : Dolby Digital Plus
  32. Codec ID : A_EAC3
  33. Duration : 1 h 30 min
  34. Bit rate mode : Constant
  35. Bit rate : 256 kb/s
  36. Channel(s) : 6 channels
  37. Channel layout : L R C LFE Ls Rs
  38. Sampling rate : 48.0 kHz
  39. Frame rate : 31.250 FPS (1536 SPF)
  40. Compression mode : Lossy
  41. Stream size : 166 MiB (1%)
  42. Title : English
  43. Language : English
  44. Service kind : Complete Main
  45. Default : No
  46. Forced : No

  47. Text #1
  48. ID : 3
  49. Format : UTF-8
  50. Codec ID : S_TEXT/UTF8
  51. Codec ID/Info : UTF-8 Plain Text
  52. Duration : 1 h 29 min
  53. Bit rate : 78 b/s
  54. Count of elements : 1354
  55. Stream size : 51.9 KiB (0%)
  56. Title : Brazilian Portuguese
  57. Language : Portuguese
  58. Default : No
  59. Forced : No

  60. Text #2
  61. ID : 4
  62. Format : UTF-8
  63. Codec ID : S_TEXT/UTF8
  64. Codec ID/Info : UTF-8 Plain Text
  65. Duration : 1 h 29 min
  66. Bit rate : 75 b/s
  67. Count of elements : 1333
  68. Stream size : 49.6 KiB (0%)
  69. Title : Danish
  70. Language : Danish
  71. Default : No
  72. Forced : No

  73. Text #3
  74. ID : 5
  75. Format : UTF-8
  76. Codec ID : S_TEXT/UTF8
  77. Codec ID/Info : UTF-8 Plain Text
  78. Duration : 1 h 29 min
  79. Bit rate : 81 b/s
  80. Count of elements : 1341
  81. Stream size : 53.5 KiB (0%)
  82. Title : German
  83. Language : German
  84. Default : No
  85. Forced : No

  86. Text #4
  87. ID : 6
  88. Format : UTF-8
  89. Codec ID : S_TEXT/UTF8
  90. Codec ID/Info : UTF-8 Plain Text
  91. Duration : 1 h 29 min
  92. Bit rate : 66 b/s
  93. Count of elements : 1087
  94. Stream size : 43.5 KiB (0%)
  95. Title : English [SDH]
  96. Language : English
  97. Default : No
  98. Forced : No

  99. Text #5
  100. ID : 7
  101. Format : UTF-8
  102. Codec ID : S_TEXT/UTF8
  103. Codec ID/Info : UTF-8 Plain Text
  104. Duration : 1 h 28 min
  105. Bit rate : 57 b/s
  106. Count of elements : 868
  107. Stream size : 37.0 KiB (0%)
  108. Title : English
  109. Language : English
  110. Default : No
  111. Forced : No

  112. Text #6
  113. ID : 8
  114. Format : UTF-8
  115. Codec ID : S_TEXT/UTF8
  116. Codec ID/Info : UTF-8 Plain Text
  117. Duration : 1 h 29 min
  118. Bit rate : 70 b/s
  119. Count of elements : 1278
  120. Stream size : 46.7 KiB (0%)
  121. Title : European Spanish
  122. Language : Spanish
  123. Default : No
  124. Forced : No

  125. Text #7
  126. ID : 9
  127. Format : UTF-8
  128. Codec ID : S_TEXT/UTF8
  129. Codec ID/Info : UTF-8 Plain Text
  130. Duration : 1 h 29 min
  131. Bit rate : 72 b/s
  132. Count of elements : 1347
  133. Stream size : 47.9 KiB (0%)
  134. Title : Finnish
  135. Language : Finnish
  136. Default : No
  137. Forced : No

  138. Text #8
  139. ID : 10
  140. Format : UTF-8
  141. Codec ID : S_TEXT/UTF8
  142. Codec ID/Info : UTF-8 Plain Text
  143. Duration : 1 h 29 min
  144. Bit rate : 76 b/s
  145. Count of elements : 1351
  146. Stream size : 50.6 KiB (0%)
  147. Title : French
  148. Language : French
  149. Default : No
  150. Forced : No

  151. Text #9
  152. ID : 11
  153. Format : UTF-8
  154. Codec ID : S_TEXT/UTF8
  155. Codec ID/Info : UTF-8 Plain Text
  156. Duration : 1 h 29 min
  157. Bit rate : 72 b/s
  158. Count of elements : 1387
  159. Stream size : 47.8 KiB (0%)
  160. Title : Italian
  161. Language : Italian
  162. Default : No
  163. Forced : No

  164. Text #10
  165. ID : 12
  166. Format : UTF-8
  167. Codec ID : S_TEXT/UTF8
  168. Codec ID/Info : UTF-8 Plain Text
  169. Duration : 1 h 29 min
  170. Bit rate : 76 b/s
  171. Count of elements : 1004
  172. Stream size : 50.4 KiB (0%)
  173. Title : Dutch
  174. Language : Dutch
  175. Default : No
  176. Forced : No

  177. Text #11
  178. ID : 13
  179. Format : UTF-8
  180. Codec ID : S_TEXT/UTF8
  181. Codec ID/Info : UTF-8 Plain Text
  182. Duration : 1 h 29 min
  183. Bit rate : 74 b/s
  184. Count of elements : 1330
  185. Stream size : 49.0 KiB (0%)
  186. Title : Norwegian
  187. Language : Norwegian
  188. Default : No
  189. Forced : No

  190. Text #12
  191. ID : 14
  192. Format : UTF-8
  193. Codec ID : S_TEXT/UTF8
  194. Codec ID/Info : UTF-8 Plain Text
  195. Duration : 1 h 29 min
  196. Bit rate : 76 b/s
  197. Count of elements : 1352
  198. Stream size : 50.6 KiB (0%)
  199. Title : Polish
  200. Language : Polish
  201. Default : No
  202. Forced : No

  203. Text #13
  204. ID : 15
  205. Format : UTF-8
  206. Codec ID : S_TEXT/UTF8
  207. Codec ID/Info : UTF-8 Plain Text
  208. Duration : 1 h 29 min
  209. Bit rate : 78 b/s
  210. Count of elements : 1347
  211. Stream size : 51.5 KiB (0%)
  212. Title : Portuguese
  213. Language : Portuguese
  214. Default : No
  215. Forced : No

  216. Text #14
  217. ID : 16
  218. Format : UTF-8
  219. Codec ID : S_TEXT/UTF8
  220. Codec ID/Info : UTF-8 Plain Text
  221. Duration : 1 h 29 min
  222. Bit rate : 76 b/s
  223. Count of elements : 1280
  224. Stream size : 50.2 KiB (0%)
  225. Title : Spanish
  226. Language : Spanish
  227. Default : No
  228. Forced : No

  229. Text #15
  230. ID : 17
  231. Format : UTF-8
  232. Codec ID : S_TEXT/UTF8
  233. Codec ID/Info : UTF-8 Plain Text
  234. Duration : 1 h 29 min
  235. Bit rate : 76 b/s
  236. Count of elements : 1325
  237. Stream size : 50.2 KiB (0%)
  238. Title : Swedish
  239. Language : Swedish
  240. Default : No
  241. Forced : No
复制代码

Own.the.Room4K.2021.2160p.DSNP.WEBRip.x265.10bit.HDR.DDP5.1-4K电影纪录片下载

Own.the.Room.2021.2160p.DSNP.WEBRip.x265.10bit.HDR.DDP5.1【4K HDR 10.45 GB】
Own.the.Room.2021.2160p.DSNP.WEBRip.x265.10bit.HDR.DDP5.1-MZABI-.torrent (52.79 KB)
回复

使用道具 举报

全部回复23

ougeng168 发表于 2021-4-10 22:47:59

ougeng168 沙发

2021-4-10 22:47:59

多谢分享,收藏了。
回复 支持 反对

使用道具 举报

ywf6168 发表于 2021-4-10 23:09:35

ywf6168 板凳

2021-4-10 23:09:35

多谢分享!!!
回复 支持 反对

使用道具 举报

bbgrnnji 发表于 2021-4-11 09:33:54

bbgrnnji 地板

2021-4-11 09:33:54

跟随五名学生及其旅程,争夺全球学生企业家奖。
回复 支持 反对

使用道具 举报

dk30129 发表于 2021-4-11 09:51:43

dk30129 5#

2021-4-11 09:51:43

谢谢分享,顶你!!!
回复 支持 反对

使用道具 举报

p5014165 发表于 2021-4-11 10:26:07

p5014165 6#

2021-4-11 10:26:07


多谢分享,收藏了。
回复 支持 反对

使用道具 举报

nelj123 发表于 2021-4-11 10:43:23

nelj123 7#

2021-4-11 10:43:23

多谢分享,收藏了哦!
回复 支持 1 反对 0

使用道具 举报

Makoto8023 发表于 2021-4-11 11:26:14

Makoto8023 8#

2021-4-11 11:26:14

谢谢分享
回复 支持 反对

使用道具 举报

GXD639 发表于 2021-4-11 14:26:41

GXD639 9#

2021-4-11 14:26:41

期待收藏,谢谢分享
回复 支持 反对

使用道具 举报

andywjhh 发表于 2021-4-11 15:23:16

andywjhh 10#

2021-4-11 15:23:16

好资源很给力
回复 支持 反对

使用道具 举报

q420200195 发表于 2021-4-11 18:10:03

q420200195 11#

2021-4-11 18:10:03


应该是好看的 感谢
回复 支持 反对

使用道具 举报

yale 发表于 2021-4-11 21:57:33

yale 12#

2021-4-11 21:57:33

谢谢分享
回复 支持 反对

使用道具 举报

xjj3133xjj 发表于 2021-4-12 11:06:30

xjj3133xjj 13#

2021-4-12 11:06:30

谢谢分享
回复 支持 反对

使用道具 举报

yangly 发表于 2021-4-12 12:13:51 Hao4K手机版

yangly 14#

2021-4-12 12:13:51

谢谢分享!
回复 支持 反对

使用道具 举报

alime 发表于 2021-4-12 19:22:38

alime 15#

2021-4-12 19:22:38


谢谢分享!
回复 支持 反对

使用道具 举报

dk30129 发表于 2021-4-13 08:31:19

dk30129 16#

2021-4-13 08:31:19

谢谢分享,顶你!
回复 支持 反对

使用道具 举报

Makoto8023 发表于 2021-4-13 11:58:25

Makoto8023 17#

2021-4-13 11:58:25

谢谢分享
回复 支持 反对

使用道具 举报

suxiuxiu 发表于 2021-4-13 13:00:52

suxiuxiu 18#

2021-4-13 13:00:52

好资源很给力
回复 支持 反对

使用道具 举报

   发表回复

您需要登录后才可以回帖 登录 | 立即注册

返回列表 本版积分规则

  • 在线客服

  • 返回顶部