微博 微信

Hao4K影音

电影频道
电影封面:
片  名: 砍人快乐4K
电影分类: 恐怖 惊悚 喜剧 
国  家: 美国 
年  代: 2020年
分 辨 率: 4K(3840x2160)
电影格式: MKV|REMUX 
画质标准: HDR10 
音质编码: DTS-HD Master Audio 
电影声道: 5.1声道 
帧数/FPS: 23.976 帧
电影语言: 英文原版 
资源大小: 13.83 GB
导  演: 克里斯托弗·兰登
豆瓣评分: 6.1 分
中文字幕: /thread-56474-1-1.html
剧情简介: 在与一个精神错乱的连环杀手交换尸体后,一名高中女生发现,她只有不到24小时的时间才能得到永久性的改变。
屠・姐上错身(港) / 换人杀砍砍(台) / 互换身体 / 交换身体 / 移形幻影 / 怪易(豆友译名)/砍人快乐4K.Freaky.2020.2160p.AMZN.WEB-DL.x265.10bit.HDR10Plus.DTS-HD.MA.5.1-4k电影信息
  1. Video
  2. ID : 1
  3. Format : HEVC
  4. Format/Info : High Efficiency Video Coding
  5. Format profile : Main 10@L5@Main
  6. HDR format : SMPTE ST 2094 App 4, Version 1, HDR10+ Profile B compatible
  7. Codec ID : V_MPEGH/ISO/HEVC
  8. Duration : 1 h 42 min
  9. Bit rate : 14.9 Mb/s
  10. Width : 3 840 pixels
  11. Height : 1 600 pixels
  12. Display aspect ratio : 2.40:1
  13. Frame rate mode : Constant
  14. Frame rate : 23.976 (24000/1001) FPS
  15. Color space : YUV
  16. Chroma subsampling : 4:2:0
  17. Bit depth : 10 bits
  18. Bits/(Pixel*Frame) : 0.101
  19. Stream size : 10.6 GiB (77%)
  20. Language : English
  21. Default : Yes
  22. Forced : No
  23. Color range : Limited
  24. Color primaries : BT.2020
  25. Transfer characteristics : PQ
  26. Matrix coefficients : BT.2020 non-constant
  27. Mastering display color primaries : Display P3
  28. Mastering display luminance : min: 0.0050 cd/m2, max: 1000 cd/m2
  29. Maximum Content Light Level : 1000 cd/m2
  30. Maximum Frame-Average Light Level : 106 cd/m2

  31. Audio #1
  32. ID : 2
  33. Format : DTS XLL
  34. Format/Info : Digital Theater Systems
  35. Commercial name : DTS-HD Master Audio
  36. Codec ID : A_DTS
  37. Duration : 1 h 42 min
  38. Bit rate mode : Variable
  39. Bit rate : 3 846 kb/s
  40. Channel(s) : 6 channels
  41. Channel layout : C L R Ls Rs LFE
  42. Sampling rate : 48.0 kHz
  43. Frame rate : 93.750 FPS (512 SPF)
  44. Bit depth : 24 bits
  45. Compression mode : Lossless
  46. Delay relative to video : 1 s 20 ms
  47. Stream size : 2.74 GiB (20%)
  48. Title : DTS-HD MA 5.1
  49. Language : English
  50. Default : Yes
  51. Forced : No

  52. Audio #2
  53. ID : 3
  54. Format : E-AC-3
  55. Format/Info : Enhanced AC-3
  56. Commercial name : Dolby Digital Plus
  57. Codec ID : A_EAC3
  58. Duration : 1 h 42 min
  59. Bit rate mode : Constant
  60. Bit rate : 640 kb/s
  61. Channel(s) : 6 channels
  62. Channel layout : L R C LFE Ls Rs
  63. Sampling rate : 48.0 kHz
  64. Frame rate : 31.250 FPS (1536 SPF)
  65. Compression mode : Lossy
  66. Stream size : 467 MiB (3%)
  67. Language : English
  68. Service kind : Complete Main
  69. Default : No
  70. Forced : No

  71. Text
  72. ID : 4
  73. Format : UTF-8
  74. Codec ID : S_TEXT/UTF8
  75. Codec ID/Info : UTF-8 Plain Text
  76. Duration : 1 h 42 min
  77. Bit rate : 63 b/s
  78. Count of elements : 1822
  79. Stream size : 47.3 KiB (0%)
  80. Title : English
  81. Language : English
  82. Default : Yes
  83. Forced : No

  84. Menu
  85. 00:00:00.000 : en:Chapter 1
  86. 00:04:57.756 : en:Chapter 2
  87. 00:09:36.743 : en:Chapter 3
  88. 00:15:32.640 : en:Chapter 4
  89. 00:20:01.867 : en:Chapter 5
  90. 00:25:14.722 : en:Chapter 6
  91. 00:27:16.760 : en:Chapter 7
  92. 00:30:58.315 : en:Chapter 8
  93. 00:34:46.418 : en:Chapter 9
  94. 00:42:44.145 : en:Chapter 10
  95. 00:47:28.679 : en:Chapter 11
  96. 00:52:28.604 : en:Chapter 12
  97. 01:00:31.336 : en:Chapter 13
  98. 01:04:13.892 : en:Chapter 14
  99. 01:09:08.353 : en:Chapter 15
  100. 01:14:19.497 : en:Chapter 16
  101. 01:19:35.104 : en:Chapter 17
  102. 01:24:09.461 : en:Chapter 18
  103. 01:29:31.783 : en:Chapter 19
  104. 01:35:59.212 : en:Chapter 20
复制代码

屠・姐上错身(港) / 换人杀砍砍(台) / 互换身体 / 交换身体 / 移形幻影 / 怪易(豆友译名)/砍人快乐4K.Freaky.2020.2160p.AMZN.WEB-DL.x265.10bit.HDR10Plus.DTS-HD.MA.5.1-4k电影下载

砍人快乐4K.Freaky.2020.2160p.AMZN.WEB-DL.x265.10bit.HDR10Plus.DTS-HD.MA.5.1【4K HDR 13.83 GB】
[Hao4K]砍人快乐4K.Freaky.2020.2160p.AMZN.WEB-DL.x265.10bit.HDR10Plus.DTS-HD.MA.5.torrent (69.72 KB, 售价: 2 K币)
回复

使用道具 举报

全部回复53

bbgrnnji 发表于 2021-4-11 14:18:47

bbgrnnji 沙发

2021-4-11 14:18:47

看样子4k真的非常喜欢恐怖片
回复 支持 1 反对 0

使用道具 举报

GXD639 发表于 2021-4-11 14:23:21

GXD639 板凳

2021-4-11 14:23:21

看介绍还不错
回复 支持 反对

使用道具 举报

rivera12345 发表于 2021-4-11 14:34:34

rivera12345 地板

2021-4-11 14:34:34

bbgrnnji 发表于 2021-4-11 14:18
看样子4k真的非常喜欢恐怖片

不错赞一个。。。。
回复 支持 反对

使用道具 举报

toywinnie 发表于 2021-4-11 16:46:18

toywinnie 5#

2021-4-11 16:46:18

Thanks for sharing!
回复 支持 反对

使用道具 举报

15308854096 发表于 2021-4-11 17:17:31

15308854096 6#

2021-4-11 17:17:31

应该是好看的 感谢
回复 支持 反对

使用道具 举报

q420200195 发表于 2021-4-11 18:09:53

q420200195 7#

2021-4-11 18:09:53


应该是好看的 感谢
回复 支持 反对

使用道具 举报

sgflshu 发表于 2021-4-11 18:52:20 Hao4K手机版

sgflshu 8#

2021-4-11 18:52:20

已经看过了。
回复 支持 反对

使用道具 举报

xjj3133xjj 发表于 2021-4-11 19:03:22

xjj3133xjj 9#

2021-4-11 19:03:22

应该是好看的 感谢
回复 支持 反对

使用道具 举报

wuqimig 发表于 2021-4-11 19:22:38

wuqimig 10#

2021-4-11 19:22:38

该是好看的
回复 支持 反对

使用道具 举报

yale 发表于 2021-4-11 21:57:06

yale 11#

2021-4-11 21:57:06

谢谢分享
回复 支持 反对

使用道具 举报

玉麒麟007 发表于 2021-4-12 09:28:00

玉麒麟007 12#

2021-4-12 09:28:00

谢谢分享
回复 支持 反对

使用道具 举报

dk30129 发表于 2021-4-12 09:28:10

dk30129 13#

2021-4-12 09:28:10

谢谢分享,顶你!!!
回复 支持 反对

使用道具 举报

Makoto8023 发表于 2021-4-12 12:06:51

Makoto8023 14#

2021-4-12 12:06:51

谢谢分享
回复 支持 反对

使用道具 举报

yoyomax 发表于 2021-4-12 14:47:42

yoyomax 15#

2021-4-12 14:47:42

谢谢分享
回复 支持 反对

使用道具 举报

andywjhh 发表于 2021-4-12 15:11:33

andywjhh 16#

2021-4-12 15:11:33

好资源很给力
回复 支持 反对

使用道具 举报

liyun80000 发表于 2021-4-12 15:35:13

liyun80000 17#

2021-4-12 15:35:13

谢谢分享
回复 支持 反对

使用道具 举报

aiyouxi353 发表于 2021-4-12 18:47:55

aiyouxi353 18#

2021-4-12 18:47:55

谢谢分享
回复 支持 反对

使用道具 举报

   发表回复

您需要登录后才可以回帖 登录 | 立即注册

返回列表 本版积分规则

  • 在线客服

  • 返回顶部